<?xml version="1.0" standalone="no"?>
<!DOCTYPE svg PUBLIC "-//W3C//DTD SVG 1.1//EN" "http://www.w3.org/Graphics/SVG/1.1/DTD/svg11.dtd" >
<svg>
<metadata>
Created by FontForge 20110222 at Thu Apr 16 04:34:24 2015
 By www-data
Copyright (c) 2011-2014 by tyPoland Lukasz Dziedzic (http://www.typoland.com/) with Reserved Font Name "Lato". Licensed under the SIL Open Font License, Version 1.1 (http://scripts.sil.org/OFL). 
</metadata>
<defs>
<font id="Lato-LightItalic" horiz-adv-x="736" >
  <font-face 
    font-family="Lato Light"
    font-weight="300"
    font-style="italic"
    font-stretch="normal"
    units-per-em="2000"
    panose-1="2 15 5 2 2 2 4 3 2 3"
    ascent="1610"
    descent="-390"
    x-height="995"
    cap-height="1415"
    bbox="-958 -527 2576 2109"
    underline-thickness="59"
    underline-position="-452"
    slope="-7"
    unicode-range="U+0020-FEFF"
  />
<missing-glyph horiz-adv-x="1025" 
d="M262 1134q21 20 46.5 38t55.5 32t65.5 22.5t77.5 8.5q54 0 100.5 -15.5t81 -45t54 -71t19.5 -93.5q0 -55 -16.5 -94.5t-41 -69t-53.5 -52t-54.5 -42.5t-44 -39.5t-20.5 -44.5l-10 -114h-65l-6 122q-2 31 14 54.5t40.5 44.5t54 42t54.5 47.5t42 60t17 80.5q0 36 -14 64
t-37.5 47.5t-55 30t-66.5 10.5q-46 0 -79 -11.5t-56 -26t-36.5 -26t-20.5 -11.5q-14 0 -21 11zM410 265q0 32 22 55t55 23q32 0 54 -23t22 -55t-22 -55t-54 -23q-33 0 -55 23t-22 55zM47 1415h931v-1415h-931v1415zM82 36h859v1343h-859v-1343z" />
    <glyph glyph-name="f_b.liga" unicode="fb" horiz-adv-x="1658" 
d="M880 659q39 79 86.5 143.5t101 110.5t112 71.5t118.5 25.5q65 0 114 -25t82 -70.5t50 -110.5t17 -145q0 -77 -16 -156.5t-45.5 -154t-72 -140.5t-96.5 -115t-118.5 -77.5t-136.5 -28.5q-84 0 -154.5 38.5t-112.5 114.5l-19 -108q-5 -16 -11 -24t-24 -8h-47l168 1390
q-45 4 -93.5 10.5t-93.5 6.5q-70 0 -127.5 -24.5t-101 -69.5t-71 -108.5t-36.5 -142.5l-13 -98h268l-8 -70h-265l-108 -874l-42 -230q-12 -41 -49 -41h-35l141 1142l-126 9q-27 3 -24 24l4 40h155l12 98q11 88 44.5 163.5t87.5 130t127 85.5t163 31q82 0 157 -8.5t132 -8.5
h3zM824 206q22 -40 49.5 -67.5t58.5 -44.5t64.5 -24.5t68.5 -7.5q63 0 117.5 25.5t99 69.5t79 102.5t58 123.5t36 133.5t12.5 133.5q0 134 -51 208.5t-149 74.5q-57 0 -114.5 -32t-110.5 -90t-100 -140t-83 -182z" />
    <glyph glyph-name="f_f_b.liga" unicode="ffb" horiz-adv-x="2219" 
d="M1441 659q39 79 86.5 143.5t101 110.5t112 71.5t118.5 25.5q65 0 114 -25t82 -70.5t50 -110.5t17 -145q0 -77 -16 -156.5t-45.5 -154t-72 -140.5t-96.5 -115t-118.5 -77.5t-136.5 -28.5q-84 0 -154.5 38.5t-112.5 114.5l-19 -108q-5 -16 -11 -24t-24 -8h-47l168 1390
q-45 4 -94 10.5t-94 6.5q-69 0 -126.5 -24.5t-101 -69.5t-71 -108.5t-37.5 -142.5l-12 -99h296l-9 -69h-293l-108 -874l-42 -230q-12 -41 -49 -41h-34l141 1145h-468l-106 -873l-42 -230q-12 -41 -49 -41h-35l140 1143l-128 8q-12 2 -19 8t-5 17l4 37h157l14 114
q10 85 39 149.5t72 107.5t97.5 64.5t117.5 21.5q28 0 55.5 -5t50.5 -16l-10 -47q-3 -8 -10 -9.5t-18.5 -0.5t-27 3.5t-36.5 2.5q-45 0 -85 -14t-71.5 -45.5t-53.5 -82.5t-31 -126l-15 -117h472l12 99q11 88 44.5 163.5t87 130t126.5 85.5t163 31q82 0 157 -8.5t132 -8.5h4z
M1385 206q22 -40 49.5 -67.5t58.5 -44.5t64.5 -24.5t68.5 -7.5q63 0 117.5 25.5t99 69.5t79 102.5t58 123.5t36 133.5t12.5 133.5q0 134 -51 208.5t-149 74.5q-57 0 -114.5 -32t-110.5 -90t-100 -140t-83 -182z" />
    <glyph glyph-name="uniFB00" unicode="ff" horiz-adv-x="1194" 
d="M901 964h296l-9 -69h-293l-106 -874l-42 -230q-12 -41 -49 -41h-34l139 1145h-470l-106 -874l-42 -230q-12 -41 -49 -41h-34l139 1143l-125 9q-26 3 -25 25l5 37h154l14 113q11 85 40 149.5t71.5 107.5t97.5 64.5t117 21.5q28 0 56 -5t50 -16l-10 -47q-3 -8 -9.5 -9.5
t-18 -0.5t-27.5 3.5t-37 2.5q-45 0 -84.5 -14t-71 -45.5t-53.5 -82.5t-31 -126l-16 -116h473l16 131q11 85 40 149.5t72.5 107.5t98.5 64.5t118 21.5q28 0 55.5 -5.5t50.5 -15.5l-10 -48q-3 -8 -10 -9t-18.5 0t-27 3.5t-36.5 2.5q-46 0 -86 -15t-72 -47.5t-54 -84.5
t-31 -127z" />
    <glyph glyph-name="f_h.liga" unicode="fh" horiz-adv-x="1654" 
d="M882 696q40 74 88.5 132.5t102 99t110 61.5t112.5 21q65 0 111 -25t73 -73t35.5 -117.5t-2.5 -158.5l-75 -636h-94l75 636q17 142 -19 218.5t-135 76.5q-54 0 -110 -27.5t-108.5 -78.5t-99.5 -123.5t-83 -162.5l-65 -539h-94l168 1390q-45 4 -92 10.5t-92 6.5
q-69 0 -126.5 -24.5t-101 -69.5t-71 -108.5t-37.5 -142.5l-12 -98h267l-8 -70h-265l-108 -874l-42 -230q-12 -41 -49 -41h-34l141 1142l-127 9q-26 3 -24 24l4 40h156l12 98q11 88 44.5 163.5t87 130t126.5 85.5t163 31q82 0 156.5 -8.5t131.5 -8.5h2z" />
    <glyph glyph-name="f_f_h.liga" unicode="ffh" horiz-adv-x="2217" 
d="M1445 696q40 74 88.5 132.5t102 99t110 61.5t112.5 21q65 0 111 -25t73 -73t35.5 -117.5t-2.5 -158.5l-75 -636h-94l75 636q17 142 -19 218.5t-135 76.5q-54 0 -110 -27.5t-108.5 -78.5t-99.5 -123.5t-83 -162.5l-65 -539h-94l168 1390q-45 4 -93 10.5t-93 6.5
q-69 0 -126.5 -24.5t-101 -69.5t-71 -108.5t-37.5 -142.5l-12 -99h296l-9 -69h-293l-108 -874l-42 -230q-12 -41 -49 -41h-34l141 1145h-468l-106 -873l-42 -230q-12 -41 -49 -41h-35l140 1143l-128 8q-12 2 -19 8t-5 17l4 37h157l14 114q10 85 39 149.5t72 107.5t97.5 64.5
t117.5 21.5q28 0 55.5 -5t50.5 -16l-10 -47q-3 -8 -10 -9.5t-18.5 -0.5t-27 3.5t-36.5 2.5q-45 0 -85 -14t-71.5 -45.5t-53.5 -82.5t-31 -126l-15 -117h472l12 99q11 88 44.5 163.5t87 130t126.5 85.5t163 31q82 0 157 -8.5t132 -8.5h3z" />
    <glyph glyph-name="uniFB01" unicode="fi" horiz-adv-x="999" 
d="M339 964h540l-119 -964h-94l110 893h-442l-108 -873l-42 -230q-12 -41 -49 -41h-34l140 1142l-126 9q-26 3 -24 24l4 40h155l11 85q11 92 45 165t88 123.5t126.5 77.5t160.5 27q15 0 33.5 -1.5t36.5 -4t34 -6.5t27 -9l-9 -46q-2 -8 -9.5 -9.5t-20.5 0t-32 4t-46 2.5
q-146 0 -235 -79.5t-109 -245.5z" />
    <glyph glyph-name="f_igrave.liga" unicode="f&#xec;" horiz-adv-x="998" 
d="M338 964h541l-119 -964h-94l110 893h-443l-106 -872l-41 -230q-12 -41 -49 -41h-35l140 1141l-127 9q-26 3 -24 24l4 40h156l17 138q20 166 93 252.5t184 86.5q16 0 34.5 -1.5t29.5 -5.5l-6 -49q-1 -11 -13 -12t-39 -1q-78 0 -127.5 -68t-66.5 -202zM754 1431
q22 0 32.5 -7t18.5 -25l117 -238h-50q-11 0 -18.5 3.5t-12.5 13.5l-172 253h85z" />
    <glyph glyph-name="f_icircumflex.liga" unicode="f&#xee;" horiz-adv-x="998" 
d="M338 964h541l-119 -964h-94l110 893h-443l-106 -872l-41 -230q-12 -41 -49 -41h-35l140 1141l-127 9q-26 3 -24 24l4 40h156l17 138q20 166 93 252.5t184 86.5q16 0 34.5 -1.5t29.5 -5.5l-6 -49q-1 -11 -13 -12t-39 -1q-78 0 -127.5 -68t-66.5 -202zM1112 1169h-60
q-6 0 -13 3t-12 11l-123 166l-9 12l-11 -12l-161 -166q-12 -14 -28 -14h-62l228 246h78z" />
    <glyph glyph-name="f_itilde.liga" unicode="f&#x129;" horiz-adv-x="999" 
d="M337 964h541l-119 -964h-94l110 893h-443l-106 -872l-41 -230q-12 -41 -49 -41h-35l140 1141l-127 9q-26 3 -24 24l4 40h156l17 138q20 166 93 252.5t184 86.5q16 0 34.5 -1.5t29.5 -5.5l-6 -49q-1 -11 -13 -12t-39 -1q-78 0 -127.5 -68t-66.5 -202zM989 1280
q40 0 63.5 27.5t29.5 74.5h55q-4 -36 -16.5 -67.5t-32 -54.5t-45.5 -36t-58 -13q-31 0 -56 16.5t-47.5 36t-44.5 36t-46 16.5q-38 0 -62 -28.5t-30 -73.5h-56q4 36 17 67.5t32.5 54.5t46 36t57.5 13t56.5 -16.5t47.5 -36t43.5 -36t45.5 -16.5z" />
    <glyph glyph-name="f_idieresis.liga" unicode="f&#xef;" horiz-adv-x="998" 
d="M815 1284q0 -15 -6.5 -28.5t-17 -24t-25 -16.5t-29.5 -6q-31 0 -54 22.5t-23 52.5q0 16 6.5 30.5t17 25t24.5 17t29 6.5t29.5 -6.5t25 -17t17 -25t6.5 -30.5zM1094 1284q0 -15 -6.5 -28.5t-17 -24t-25 -16.5t-29.5 -6q-32 0 -54.5 22.5t-22.5 52.5q0 16 6 30.5t16.5 25
t24.5 17t30 6.5q15 0 29.5 -6.5t25 -17t17 -25t6.5 -30.5zM338 964h541l-119 -964h-94l110 893h-443l-106 -872l-41 -230q-12 -41 -49 -41h-35l140 1141l-127 9q-26 3 -24 24l4 40h156l17 138q20 166 93 252.5t184 86.5q16 0 34.5 -1.5t29.5 -5.5l-6 -49q-1 -11 -13 -12
t-39 -1q-78 0 -127.5 -68t-66.5 -202z" />
    <glyph glyph-name="f_imacron.liga" unicode="f&#x12b;" horiz-adv-x="998" 
d="M338 964h541l-119 -964h-94l110 893h-443l-106 -872l-41 -230q-12 -41 -49 -41h-35l140 1141l-127 9q-26 3 -24 24l4 40h156l17 138q20 166 93 252.5t184 86.5q16 0 34.5 -1.5t29.5 -5.5l-6 -49q-1 -11 -13 -12t-39 -1q-78 0 -127.5 -68t-66.5 -202zM637 1317h502l-8 -65
h-501z" />
    <glyph glyph-name="f_ibreve.liga" unicode="f&#x12d;" horiz-adv-x="998" 
d="M338 964h541l-119 -964h-94l110 893h-443l-106 -872l-41 -230q-12 -41 -49 -41h-35l140 1141l-127 9q-26 3 -24 24l4 40h156l17 138q20 166 93 252.5t184 86.5q16 0 34.5 -1.5t29.5 -5.5l-6 -49q-1 -11 -13 -12t-39 -1q-78 0 -127.5 -68t-66.5 -202zM867 1168
q-60 0 -100 19.5t-62.5 53.5t-29.5 79t-1 95h64q-5 -37 -0.5 -70t20 -58t44 -39.5t72.5 -14.5t75.5 14.5t52.5 39.5t33 58t16 70h64q-6 -50 -22.5 -95t-46.5 -79t-74.5 -53.5t-104.5 -19.5z" />
    <glyph glyph-name="f_iogonek.liga" unicode="f&#x12f;" horiz-adv-x="999" 
d="M801 -243q9 0 12 -8l11 -34q-29 -24 -70 -38.5t-84 -14.5q-66 0 -104 33t-38 91q0 34 13 65t34 58t48 50t56 41h-13l110 893h-442l-108 -873l-42 -230q-12 -41 -49 -41h-34l140 1142l-126 9q-26 3 -24 24l4 40h155l11 85q11 92 45 165t88 123.5t126.5 77.5t160.5 27
q15 0 33.5 -1.5t36.5 -4t34 -6.5t27 -9l-9 -46q-2 -8 -9.5 -9.5t-20.5 0t-32 4t-46 2.5q-146 0 -235 -79.5t-109 -245.5l-12 -83h540l-119 -964h-12q-21 -12 -46.5 -30t-47 -42.5t-36 -54t-14.5 -63.5q0 -41 25.5 -64t65.5 -23q25 0 43 5.5t30.5 11.5t20 11.5t12.5 5.5z" />
    <glyph glyph-name="f_dotlessi.liga" unicode="f&#x131;" horiz-adv-x="999" 
d="M338 964h541l-119 -964h-94l110 893h-443l-106 -872l-41 -230q-12 -41 -49 -41h-35l140 1141l-127 9q-26 3 -24 24l4 40h156l17 138q20 166 93 252.5t184 86.5q16 0 34.5 -1.5t29.5 -5.5l-6 -49q-1 -11 -13 -12t-39 -1q-78 0 -127.5 -68t-66.5 -202z" />
    <glyph glyph-name="uniFB03" unicode="ffi" horiz-adv-x="1558" 
d="M1430 895l-109 -895h-92l109 895h-444l-108 -875l-42 -230q-12 -41 -49 -41h-34l141 1146h-469l-106 -874l-42 -230q-12 -41 -49 -41h-34l139 1143l-125 9q-26 3 -25 25l5 37h154l14 113q11 85 40 149.5t71.5 107.5t97.5 64.5t117 21.5q28 0 56 -5t50 -16l-10 -47
q-3 -8 -9.5 -9.5t-18 -0.5t-27.5 3.5t-37 2.5q-45 0 -84.5 -14t-71 -45.5t-53.5 -82.5t-31 -126l-16 -116h472l11 85q11 92 45 165t88 123.5t126.5 77.5t160.5 27q15 0 33.5 -1.5t36.5 -4t34 -6.5t27 -9l-9 -46q-2 -8 -9.5 -9.5t-20.5 0t-32 4t-46 2.5q-146 0 -235 -79.5
t-109 -245.5l-12 -83h540l-8 -69h-1z" />
    <glyph glyph-name="f_f_igrave.liga" unicode="ff&#xec;" horiz-adv-x="1560" 
d="M1430 895l-109 -895h-92l109 895h-445l-106 -874l-41 -230q-12 -41 -49 -41h-34l139 1145h-469l-106 -874l-42 -230q-12 -41 -49 -41h-34l139 1143l-125 9q-26 3 -25 25l5 37h154l14 113q11 85 40 149.5t71.5 107.5t97.5 64.5t117 21.5q28 0 56 -5t50 -16l-10 -47
q-3 -8 -9.5 -9.5t-18 -0.5t-27.5 3.5t-37 2.5q-45 0 -84.5 -14t-71 -45.5t-53.5 -82.5t-31 -126l-16 -116h473l17 138q20 166 93.5 252.5t184.5 86.5q16 0 34 -1.5t30 -5.5l-6 -49q-2 -11 -14 -12t-38 -1q-78 0 -128 -68t-67 -202l-18 -138h540l-8 -69h-1zM1313 1431
q22 0 32.5 -7t18.5 -25l117 -238h-50q-11 0 -18.5 3.5t-12.5 13.5l-172 253h85z" />
    <glyph glyph-name="f_f_icircumflex.liga" unicode="ff&#xee;" horiz-adv-x="1560" 
d="M1430 895l-109 -895h-92l109 895h-445l-106 -874l-41 -230q-12 -41 -49 -41h-34l139 1145h-469l-106 -874l-42 -230q-12 -41 -49 -41h-34l139 1143l-125 9q-26 3 -25 25l5 37h154l14 113q11 85 40 149.5t71.5 107.5t97.5 64.5t117 21.5q28 0 56 -5t50 -16l-10 -47
q-3 -8 -9.5 -9.5t-18 -0.5t-27.5 3.5t-37 2.5q-45 0 -84.5 -14t-71 -45.5t-53.5 -82.5t-31 -126l-16 -116h473l17 138q20 166 93.5 252.5t184.5 86.5q16 0 34 -1.5t30 -5.5l-6 -49q-2 -11 -14 -12t-38 -1q-78 0 -128 -68t-67 -202l-18 -138h540l-8 -69h-1zM1663 1169h-60
q-6 0 -13 3t-12 11l-123 166l-9 12l-11 -12l-161 -166q-12 -14 -28 -14h-62l228 246h78z" />
    <glyph glyph-name="f_f_itilde.liga" unicode="ff&#x129;" horiz-adv-x="1560" 
d="M1429 895l-109 -895h-92l109 895h-445l-106 -874l-41 -230q-12 -41 -49 -41h-34l139 1145h-469l-106 -874l-42 -230q-12 -41 -49 -41h-34l139 1143l-125 9q-26 3 -25 25l5 37h154l14 113q11 85 40 149.5t71.5 107.5t97.5 64.5t117 21.5q28 0 56 -5t50 -16l-10 -47
q-3 -8 -9.5 -9.5t-18 -0.5t-27.5 3.5t-37 2.5q-45 0 -84.5 -14t-71 -45.5t-53.5 -82.5t-31 -126l-16 -116h473l17 138q20 166 93.5 252.5t184.5 86.5q16 0 34 -1.5t30 -5.5l-6 -49q-2 -11 -14 -12t-38 -1q-78 0 -128 -68t-67 -202l-18 -138h540l-8 -69h-1zM1545 1280
q40 0 63.5 27.5t29.5 74.5h55q-4 -36 -16.5 -67.5t-32 -54.5t-45.5 -36t-58 -13q-31 0 -56 16.5t-47.5 36t-44.5 36t-46 16.5q-38 0 -62 -28.5t-30 -73.5h-56q4 36 17 67.5t32.5 54.5t46 36t57.5 13t56.5 -16.5t47.5 -36t43.5 -36t45.5 -16.5z" />
    <glyph glyph-name="f_f_idieresis.liga" unicode="ff&#xef;" horiz-adv-x="1559" 
d="M1387 1284q0 -15 -6.5 -28.5t-17 -24t-25 -16.5t-29.5 -6q-31 0 -54 22.5t-23 52.5q0 16 6.5 30.5t17 25t24.5 17t29 6.5t29.5 -6.5t25 -17t17 -25t6.5 -30.5zM1665 1284q0 -15 -6.5 -28.5t-17 -24t-25 -16.5t-29.5 -6q-32 0 -54.5 22.5t-22.5 52.5q0 16 6 30.5t16.5 25
t24.5 17t30 6.5q15 0 29.5 -6.5t25 -17t17 -25t6.5 -30.5zM1430 895l-109 -895h-92l109 895h-445l-106 -874l-41 -230q-12 -41 -49 -41h-34l139 1145h-469l-106 -874l-42 -230q-12 -41 -49 -41h-34l139 1143l-125 9q-26 3 -25 25l5 37h154l14 113q11 85 40 149.5t71.5 107.5
t97.5 64.5t117 21.5q28 0 56 -5t50 -16l-10 -47q-3 -8 -9.5 -9.5t-18 -0.5t-27.5 3.5t-37 2.5q-45 0 -84.5 -14t-71 -45.5t-53.5 -82.5t-31 -126l-16 -116h473l17 138q20 166 93.5 252.5t184.5 86.5q16 0 34 -1.5t30 -5.5l-6 -49q-2 -11 -14 -12t-38 -1q-78 0 -128 -68
t-67 -202l-18 -138h540l-8 -69h-1z" />
    <glyph glyph-name="f_f_imacron.liga" unicode="ff&#x12b;" horiz-adv-x="1560" 
d="M1430 895l-109 -895h-92l109 895h-445l-106 -874l-41 -230q-12 -41 -49 -41h-34l139 1145h-469l-106 -874l-42 -230q-12 -41 -49 -41h-34l139 1143l-125 9q-26 3 -25 25l5 37h154l14 113q11 85 40 149.5t71.5 107.5t97.5 64.5t117 21.5q28 0 56 -5t50 -16l-10 -47
q-3 -8 -9.5 -9.5t-18 -0.5t-27.5 3.5t-37 2.5q-45 0 -84.5 -14t-71 -45.5t-53.5 -82.5t-31 -126l-16 -116h473l17 138q20 166 93.5 252.5t184.5 86.5q16 0 34 -1.5t30 -5.5l-6 -49q-2 -11 -14 -12t-38 -1q-78 0 -128 -68t-67 -202l-18 -138h540l-8 -69h-1zM1180 1317h502
l-8 -65h-501z" />
    <glyph glyph-name="f_f_ibreve.liga" unicode="ff&#x12d;" horiz-adv-x="1560" 
d="M1430 895l-109 -895h-92l109 895h-445l-106 -874l-41 -230q-12 -41 -49 -41h-34l139 1145h-469l-106 -874l-42 -230q-12 -41 -49 -41h-34l139 1143l-125 9q-26 3 -25 25l5 37h154l14 113q11 85 40 149.5t71.5 107.5t97.5 64.5t117 21.5q28 0 56 -5t50 -16l-10 -47
q-3 -8 -9.5 -9.5t-18 -0.5t-27.5 3.5t-37 2.5q-45 0 -84.5 -14t-71 -45.5t-53.5 -82.5t-31 -126l-16 -116h473l17 138q20 166 93.5 252.5t184.5 86.5q16 0 34 -1.5t30 -5.5l-6 -49q-2 -11 -14 -12t-38 -1q-78 0 -128 -68t-67 -202l-18 -138h540l-8 -69h-1zM1422 1168
q-60 0 -100 19.5t-62.5 53.5t-29.5 79t-1 95h64q-5 -37 -0.5 -70t20 -58t44 -39.5t72.5 -14.5t75.5 14.5t52.5 39.5t33 58t16 70h64q-6 -50 -22.5 -95t-46.5 -79t-74.5 -53.5t-104.5 -19.5z" />
    <glyph glyph-name="f_f_iogonek.liga" unicode="ff&#x12f;" horiz-adv-x="1560" 
d="M1430 895l-109 -895h-12q-21 -12 -46.5 -30t-47 -42.5t-36 -54t-14.5 -63.5q0 -41 25.5 -64t65.5 -23q25 0 43 5.5t30.5 11.5t20 11.5t12.5 5.5q9 0 12 -8l11 -34q-29 -24 -70 -38.5t-84 -14.5q-66 0 -104 33t-38 91q0 34 13 65t34 58t48 50t56 41h-11l109 895h-444
l-108 -875l-42 -230q-12 -41 -49 -41h-34l141 1146h-469l-106 -874l-42 -230q-12 -41 -49 -41h-34l139 1143l-125 9q-26 3 -25 25l5 37h154l14 113q11 85 40 149.5t71.5 107.5t97.5 64.5t117 21.5q28 0 56 -5t50 -16l-10 -47q-3 -8 -9.5 -9.5t-18 -0.5t-27.5 3.5t-37 2.5
q-45 0 -84.5 -14t-71 -45.5t-53.5 -82.5t-31 -126l-16 -116h472l11 85q11 92 45 165t88 123.5t126.5 77.5t160.5 27q15 0 33.5 -1.5t36.5 -4t34 -6.5t27 -9l-9 -46q-2 -8 -9.5 -9.5t-20.5 0t-32 4t-46 2.5q-146 0 -235 -79.5t-109 -245.5l-12 -83h540l-8 -69h-1z" />
    <glyph glyph-name="f_f_dotlessi.liga" unicode="ff&#x131;" horiz-adv-x="1560" 
d="M1430 895l-109 -895h-92l109 895h-445l-106 -874l-41 -230q-12 -41 -49 -41h-34l139 1145h-469l-106 -874l-42 -230q-12 -41 -49 -41h-34l139 1143l-125 9q-26 3 -25 25l5 37h154l14 113q11 85 40 149.5t71.5 107.5t97.5 64.5t117 21.5q28 0 56 -5t50 -16l-10 -47
q-3 -8 -9.5 -9.5t-18 -0.5t-27.5 3.5t-37 2.5q-45 0 -84.5 -14t-71 -45.5t-53.5 -82.5t-31 -126l-16 -116h473l17 138q20 166 93.5 252.5t184.5 86.5q16 0 34 -1.5t30 -5.5l-6 -49q-2 -11 -14 -12t-38 -1q-78 0 -128 -68t-67 -202l-18 -138h540l-8 -69h-1z" />
    <glyph glyph-name="f_j.liga" unicode="fj" horiz-adv-x="999" 
d="M879 964l-133 -1091q-6 -52 -26 -96t-51.5 -76.5t-75 -51t-96.5 -18.5q-29 0 -50 5t-40 16l10 48q4 9 9 10.5t12.5 0t19 -4t29.5 -2.5q74 0 114.5 44t51.5 125l124 1022h-442l-108 -875l-42 -230q-12 -41 -49 -41h-34l141 1144l-127 9q-26 3 -25 25l5 37h155l11 85
q11 92 45 165t88 123.5t126.5 77.5t160.5 27q15 0 33.5 -1.5t36.5 -4t34 -6.5t27 -9l-9 -46q-2 -8 -9.5 -9.5t-20.5 0t-32 4t-46 2.5q-146 0 -235 -79.5t-109 -245.5l-12 -83h539z" />
    <glyph glyph-name="f_f_j.liga" unicode="ffj" horiz-adv-x="1560" 
d="M338 964h472l11 85q11 92 45 165t88 123.5t126.5 77.5t160.5 27q15 0 33.5 -1.5t36.5 -4t34 -6.5t27 -9l-9 -46q-2 -8 -9.5 -9.5t-20.5 0t-32 4t-46 2.5q-146 0 -235 -79.5t-109 -245.5l-12 -83h541l-133 -1092q-6 -52 -26 -96t-51.5 -76.5t-75 -51t-96.5 -18.5
q-29 0 -50 5.5t-40 15.5l10 49q4 9 9 10.5t12.5 0t19 -4.5t29.5 -3q74 0 114.5 44t51.5 125l124 1023h-444l-108 -875l-42 -230q-12 -41 -49 -41h-34l141 1146h-469l-106 -874l-42 -230q-12 -41 -49 -41h-34l139 1143l-125 9q-26 3 -25 25l5 37h154l14 113q11 85 40 149.5
t71.5 107.5t97.5 64.5t117 21.5q28 0 56 -5t50 -16l-10 -47q-3 -8 -9.5 -9.5t-18 -0.5t-27.5 3.5t-37 2.5q-45 0 -84.5 -14t-71 -45.5t-53.5 -82.5t-31 -126z" />
    <glyph glyph-name="f_k.liga" unicode="fk" horiz-adv-x="1506" 
d="M334 894l-108 -874l-42 -230q-12 -41 -49 -41h-34l141 1142l-127 9q-26 3 -24 24l4 40h156l12 98q11 88 44.5 163.5t87 130t126.5 85.5t163 31q78 0 149 -8t127 -9h13l-109 -887h38q17 0 28.5 4.5t25.5 18.5l412 379q11 12 23 18.5t29 6.5h81l-455 -417q-11 -11 -20 -19
t-20 -14q13 -8 22.5 -18.5t17.5 -24.5l364 -502h-79q-14 0 -24 4.5t-18 18.5l-330 448q-13 19 -26 25t-41 6h-36l-61 -502h-93l170 1390q-45 4 -92 10.5t-92 6.5q-69 0 -126.5 -24.5t-101 -69.5t-71 -108.5t-37.5 -142.5l-12 -98h267l-8 -70h-265z" />
    <glyph glyph-name="f_f_k.liga" unicode="ffk" horiz-adv-x="2071" 
d="M340 963h472l12 99q11 88 44.5 163.5t87.5 130t127 85.5t163 31q82 0 156.5 -8.5t131.5 -8.5h4l-109 -887h38q17 0 28.5 4.5t25.5 18.5l412 379q11 12 23 18.5t29 6.5h81l-455 -417q-11 -11 -20 -19t-20 -14q13 -8 22.5 -18.5t17.5 -24.5l364 -502h-79q-14 0 -24 4.5
t-18 18.5l-330 448q-13 19 -26 25t-41 6h-36l-61 -502h-93l170 1390q-45 4 -93.5 10.5t-93.5 6.5q-70 0 -127.5 -24.5t-101 -69.5t-71 -108.5t-36.5 -142.5l-13 -99h296l-9 -69h-292l-108 -874l-42 -230q-12 -41 -49 -41h-35l141 1145h-468l-106 -873l-42 -230
q-12 -41 -49 -41h-34l139 1143l-127 8q-27 3 -24 25l4 37h156l14 114q11 85 40 149.5t71.5 107.5t97.5 64.5t117 21.5q28 0 56 -5t50 -16l-10 -47q-3 -8 -9.5 -9.5t-18 -0.5t-27.5 3.5t-37 2.5q-45 0 -84.5 -14t-71 -45.5t-53.5 -82.5t-31 -126z" />
    <glyph glyph-name="uniFB02" unicode="fl" horiz-adv-x="1042" 
d="M334 894l-108 -874l-42 -230q-12 -41 -49 -41h-34l140 1142l-126 9q-26 3 -24 24l4 40h155l8 66q11 88 44 163t86 129.5t125.5 85.5t161.5 31q69 0 133 -6.5t121 -6.5h52l-175 -1426h-93l165 1356q-47 2 -99 7.5t-100 5.5q-69 0 -125.5 -23.5t-99 -67.5t-70 -107
t-36.5 -141l-8 -66h263l-8 -70h-261z" />
    <glyph glyph-name="uniFB04" unicode="ffl" horiz-adv-x="1603" 
d="M337 963h474l8 67q11 88 44 163t86 129.5t125.5 85.5t161.5 31q69 0 133 -6.5t121 -6.5h52l-175 -1426h-93l165 1356q-47 2 -99 7.5t-100 5.5q-69 0 -125.5 -23.5t-99 -67.5t-70 -107t-36.5 -141l-8 -67h296l-9 -69h-293l-108 -874l-42 -230q-12 -41 -49 -41h-34
l140 1145h-470l-106 -873l-42 -230q-12 -41 -49 -41h-34l139 1143l-124 8q-27 3 -25 25l5 37h153l14 114q11 85 39.5 149.5t71.5 107.5t97.5 64.5t117.5 21.5q28 0 56 -5t50 -16l-10 -47q-3 -8 -9.5 -9.5t-18 -0.5t-27.5 3.5t-37 2.5q-45 0 -84.5 -14t-71 -45.5t-53.5 -82.5
t-31 -126z" />
    <glyph glyph-name="f_t.liga" unicode="ft" horiz-adv-x="1264" 
d="M340 964h490l65 357q3 9 9.5 16t16.5 7h47l-47 -380h288l-8 -69h-289l-69 -564q-5 -41 -8 -67t-4.5 -42.5t-2 -24.5t-0.5 -12q0 -65 30 -94t78 -29q33 0 59 10.5t44.5 23t31 23t18.5 10.5q9 0 14 -10l19 -42q-41 -42 -97.5 -67.5t-114.5 -25.5q-82 0 -128 45t-48 138
q0 6 0.5 15t2 27t5 46.5t8.5 72.5l70 567h-486l-106 -874l-42 -230q-12 -41 -49 -41h-34l139 1143l-126 9q-26 3 -25 25l5 37h154l16 126q11 85 40 149.5t72.5 107.5t98.5 64.5t118 21.5q28 0 55.5 -5.5t50.5 -15.5l-10 -48q-2 -8 -9 -9.5t-18.5 0t-27.5 4t-37 2.5
q-46 0 -86 -15t-72 -47.5t-54 -84.5t-31 -127z" />
    <glyph glyph-name="f_f_t.liga" unicode="fft" horiz-adv-x="1825" 
d="M900 963h490l66 358q3 9 9.5 16t16.5 7h47l-47 -381h289l-9 -69h-289l-69 -563q-5 -41 -8 -67t-4.5 -42.5t-2 -24.5t-0.5 -12q0 -65 30 -94t78 -29q33 0 59 10.5t44.5 23t31 23t18.5 10.5q9 0 14 -10l19 -42q-41 -42 -97.5 -67.5t-114.5 -25.5q-82 0 -128 45t-48 138
q0 6 0.5 15t2 27t5 46.5t8.5 72.5l69 566h-485l-106 -873l-42 -230q-12 -41 -49 -41h-35l139 1144h-469l-106 -873l-42 -230q-12 -41 -49 -41h-34l139 1143l-125 8q-27 3 -25 25l5 37h154l14 114q11 85 39.5 149.5t71.5 107.5t97.5 64.5t117.5 21.5q28 0 56 -5t50 -16
l-10 -47q-3 -8 -9.5 -9.5t-18 -0.5t-27.5 3.5t-37 2.5q-45 0 -84.5 -14t-71 -45.5t-53.5 -82.5t-31 -126l-16 -117h473l16 132q10 85 39 149.5t72.5 107.5t98.5 64.5t118 21.5q28 0 56 -5.5t50 -15.5l-10 -48q-3 -8 -9.5 -9t-18 0t-27.5 3.5t-37 2.5q-45 0 -85 -15
t-72 -47.5t-54 -84.5t-31 -127z" />
    <glyph glyph-name="t_f.liga" unicode="tf" horiz-adv-x="1236" 
d="M941 963h296l-8 -69h-294l-106 -874l-42 -230q-12 -41 -49 -41h-34l139 1145h-512l-69 -563q-5 -41 -8.5 -67t-5 -42.5t-2 -24.5t-0.5 -12q0 -65 30.5 -94t78.5 -29q33 0 58.5 10.5t44.5 23t31 23t18 10.5t9 -2.5t6 -7.5l18 -42q-40 -42 -97 -67.5t-114 -25.5
q-82 0 -128.5 45t-47.5 138q0 6 0.5 15t2 27t4.5 46.5t9 72.5l69 566h-131q-10 0 -16 6t-5 17l5 35l157 11l66 358q2 9 9 16t17 7h46l-47 -381h513l15 126q11 85 40 149.5t72.5 107.5t98.5 64.5t118 21.5q28 0 55.5 -5t50.5 -16l-10 -47q-2 -8 -9 -10t-18.5 -0.5t-27.5 4
t-37 2.5q-46 0 -86 -14.5t-72 -47.5t-54 -85t-31 -127z" />
    <glyph glyph-name="t_iogonek.liga" unicode="t&#x12f;" horiz-adv-x="1079" 
d="M958 1427q16 0 31.5 -7t27.5 -19t19 -28.5t7 -34.5t-7 -33.5t-19 -27.5t-27.5 -19t-31.5 -7q-17 0 -32 7t-26.5 19t-18.5 27.5t-7 33.5t7 34t18.5 28.5t26.5 19.5t32 7zM959 963l-8 -69l-110 -894h-7q-21 -12 -46.5 -30t-47 -42t-36.5 -54t-15 -64q0 -41 25.5 -65
t67.5 -24q26 0 44 5.5t30.5 12t19.5 12t12 5.5q9 0 12 -8l10 -33q-28 -24 -68.5 -38.5t-83.5 -14.5q-66 0 -103.5 33t-37.5 91q0 34 12.5 65t33.5 58t48 50t56 41h-19l110 894h-527l-69 -563q-5 -41 -8.5 -67t-5 -42.5t-2 -24.5t-0.5 -12q0 -65 30.5 -94t78.5 -29
q33 0 58.5 10.5t44.5 23t31 23t18 10.5t9 -2.5t6 -7.5l18 -42q-40 -42 -97 -67.5t-114 -25.5q-82 0 -128.5 45t-47.5 138q0 6 0.5 15t2 27t4.5 46.5t9 72.5l69 566h-131q-10 0 -16 6t-5 17l5 35l157 12l66 357q2 9 9 16t17 7h46l-47 -381h620z" />
    <glyph glyph-name="t_dotlessi.liga" unicode="t&#x131;" horiz-adv-x="1079" 
d="M951 894l-110 -894h-93l110 894h-528l-69 -563q-5 -41 -8 -67t-4.5 -42.5t-2 -24.5t-0.5 -12q0 -65 30 -94t78 -29q33 0 59 10.5t44.5 23t31 23t18.5 10.5q9 0 14 -10l19 -42q-41 -42 -97.5 -67.5t-114.5 -25.5q-82 0 -128 45t-48 138q0 6 0.5 15t2 27t5 46.5t8.5 72.5
l70 566h-131q-10 0 -16 6t-5 17l4 35l158 12l65 357q3 9 9.5 16t16.5 7h47l-47 -381h620z" />
    <glyph glyph-name="t_t.liga" unicode="tt" horiz-adv-x="1266" 
d="M152 167q0 6 0.5 15t2 27t5 46.5t8.5 72.5l69 566h-130q-10 0 -16 6t-5 17l4 35l158 12l65 357q3 9 9.5 16t16.5 7h47l-47 -381h493l66 358q2 9 9 16t17 7h46l-47 -381h288l-9 -69h-287l-69 -563q-5 -41 -8.5 -67t-5 -42.5t-2 -24.5t-0.5 -12q0 -65 30.5 -94t78.5 -29
q33 0 58.5 10.5t44.5 23t31 23t18 10.5t9 -2.5t6 -7.5l18 -42q-40 -42 -97 -67.5t-114 -25.5q-82 0 -128.5 45t-47.5 138q0 6 0.5 15t2 27t4.5 46.5t9 72.5l69 566h-492l-69 -563q-5 -41 -8 -67t-4.5 -42.5t-2 -24.5t-0.5 -12q0 -65 30 -94t78 -29q33 0 59 10.5t44.5 23
t31 23t18.5 10.5q9 0 14 -10l19 -42q-41 -42 -97.5 -67.5t-114.5 -25.5q-82 0 -128 45t-48 138z" />
    <glyph glyph-name="t_t_f.liga" unicode="ttf" horiz-adv-x="1818" 
d="M1451 1089q10 85 39 149.5t72.5 107.5t98.5 64.5t118 21.5q28 0 56 -5t50 -16l-10 -47q-2 -8 -8.5 -10t-18 -0.5t-28 4t-37.5 2.5q-45 0 -85 -14.5t-72 -47.5t-54 -85t-32 -127l-16 -123h297l-9 -69h-292l-107 -874l-42 -230q-12 -41 -49 -41h-35l140 1145h-513l-69 -563
q-5 -41 -8 -67t-4.5 -42.5t-2 -24.5t-0.5 -12q0 -65 30 -94t78 -29q33 0 59 10.5t44.5 23t31 23t18.5 10.5q9 0 14 -10l19 -42q-41 -42 -97.5 -67.5t-114.5 -25.5q-82 0 -128 45t-48 138q0 6 0.5 15t2 27t5 46.5t8.5 72.5l70 566h-491l-69 -563q-5 -41 -8.5 -67t-5 -42.5
t-2 -24.5t-0.5 -12q0 -65 30.5 -94t78.5 -29q33 0 58.5 10.5t44.5 23t31 23t18 10.5t9 -2.5t6 -7.5l18 -42q-40 -42 -97 -67.5t-114 -25.5q-82 0 -128.5 45t-47.5 138q0 6 0.5 15t2 27t4.5 46.5t9 72.5l69 566h-131q-10 0 -16 6t-5 17l5 35l157 12l66 357q2 9 9 16t17 7h46
l-47 -381h493l65 358q3 9 9.5 16t16.5 7h47l-47 -381h513z" />
    <glyph glyph-name="t_t_iogonek.liga" unicode="tt&#x12f;" horiz-adv-x="1644" 
d="M1524 963l-8 -69l-110 -894h1q-21 -12 -46.5 -30t-47 -42.5t-36 -54t-14.5 -63.5q0 -41 25.5 -64t65.5 -23q25 0 43 5.5t30.5 11.5t20 11.5t12.5 5.5q9 0 12 -8l11 -34q-29 -24 -70 -38.5t-84 -14.5q-66 0 -104 33t-38 91q0 34 13 65t34 58t48 50t56 41h-25l110 894h-509
l-69 -563q-5 -41 -8 -67t-4.5 -42.5t-2 -24.5t-0.5 -12q0 -65 30 -94t78 -29q33 0 59 10.5t44.5 23t31 23t18.5 10.5q9 0 14 -10l19 -42q-41 -42 -97.5 -67.5t-114.5 -25.5q-82 0 -128 45t-48 138q0 6 0.5 15t2 27t5 46.5t8.5 72.5l70 566h-491l-69 -563q-5 -41 -8.5 -67
t-5 -42.5t-2 -24.5t-0.5 -12q0 -65 30.5 -94t78.5 -29q33 0 58.5 10.5t44.5 23t31 23t18 10.5t9 -2.5t6 -7.5l18 -42q-40 -42 -97 -67.5t-114 -25.5q-82 0 -128.5 45t-47.5 138q0 6 0.5 15t2 27t4.5 46.5t9 72.5l69 566h-131q-10 0 -16 6t-5 17l5 35l157 12l66 357q2 9 9 16
t17 7h46l-47 -381h493l65 358q3 9 9.5 16t16.5 7h47l-47 -381h601zM1524 1427q16 0 31.5 -7t27.5 -19t19 -28.5t7 -34.5t-7 -33.5t-19 -27.5t-27.5 -19t-31.5 -7q-17 0 -32 7t-26.5 19t-18.5 27.5t-7 33.5t7 34t18.5 28.5t26.5 19.5t32 7z" />
    <glyph glyph-name="t_t_dotlessi.liga" unicode="tt&#x131;" horiz-adv-x="1644" 
d="M1405 0h-92l110 894h-509l-69 -563q-5 -41 -8.5 -67t-5 -42.5t-2 -24.5t-0.5 -12q0 -65 30.5 -94t78.5 -29q33 0 58.5 10.5t44.5 23t31 23t18 10.5t9 -2.5t6 -7.5l18 -42q-40 -42 -97 -67.5t-114 -25.5q-82 0 -128.5 45t-47.5 138q0 6 0.5 15t2 27t4.5 46.5t9 72.5
l69 566h-491l-69 -563q-5 -41 -8 -67t-4.5 -42.5t-2 -24.5t-0.5 -12q0 -65 30 -94t78 -29q33 0 59 10.5t44.5 23t31 23t18.5 10.5q9 0 14 -10l19 -42q-41 -42 -97.5 -67.5t-114.5 -25.5q-82 0 -128 45t-48 138q0 6 0.5 15t2 27t5 46.5t8.5 72.5l70 566h-131q-10 0 -16 6
t-5 17l4 35l158 12l65 357q3 9 9.5 16t16.5 7h47l-47 -381h492l66 358q2 9 9 16t17 7h46l-47 -381h602z" />
    <glyph glyph-name="f_uni01D0.liga" unicode="f&#x1d0;" horiz-adv-x="998" 
d="M337 964h541l-118 -964h-93l109 893h-444l-107 -872l-40 -230q-12 -41 -49 -41h-35l140 1142l-125 8q-27 3 -25 25l5 39h154l17 138q20 168 92.5 253.5t184.5 85.5q16 0 34 -1.5t30 -5.5l-6 -49q-1 -11 -13.5 -12t-38.5 -1q-78 0 -128 -68t-67 -202zM654 1415h65
q8 0 14.5 -3t9.5 -8l114 -165l8 -15q6 9 12 15l156 165q5 5 12 8t15 3h63l-224 -246h-82z" />
    <glyph glyph-name="f_uni0209.liga" unicode="f&#x209;" horiz-adv-x="998" 
d="M338 964h466v-1h74l-118 -963h-93l109 893h-443l-106 -872l-41 -230q-12 -41 -49 -41h-35l140 1141l-127 9q-26 3 -24 24l4 40h156l17 138q11 93 37.5 157.5t66.5 105t91.5 58.5t112.5 18q34 0 54 -8t35 -34l138 -238h-46q-21 0 -33 16l-136 195q-53 -1 -92.5 -15.5
t-67 -46.5t-45.5 -83.5t-27 -124.5zM858 1431q23 0 33.5 -7.5t18.5 -24.5l109 -238h-40q-23 0 -34 16l-151 254h64z" />
    <glyph glyph-name="f_uni020B.liga" unicode="f&#x20b;" horiz-adv-x="998" 
d="M337 964h541l-118 -964h-93l109 893h-444l-107 -872l-40 -230q-12 -41 -49 -41h-35l140 1142l-125 8q-27 3 -25 25l5 39h154l17 138q20 168 92.5 253.5t184.5 85.5q16 0 34 -1.5t30 -5.5l-6 -49q-1 -11 -13.5 -12t-38.5 -1q-78 0 -128 -68t-67 -202zM889 1425
q61 0 101 -19.5t62.5 -53t29 -78.5t0.5 -95h-67q5 37 1 70.5t-19 58.5t-43 39.5t-71 14.5q-44 0 -75.5 -14.5t-53 -39.5t-34 -58.5t-16.5 -70.5h-67q6 50 23.5 95t48.5 78.5t75.5 53t104.5 19.5z" />
    <glyph glyph-name="f_uni1E2F.liga" unicode="f&#x1e2f;" horiz-adv-x="998" 
d="M338 964h541l-119 -964h-94l110 893h-443l-106 -872l-41 -230q-12 -41 -49 -41h-35l140 1141l-127 9q-26 3 -24 24l4 40h156l17 138q20 166 93 252.5t184 86.5q16 0 34.5 -1.5t29.5 -5.5l-6 -49q-1 -11 -13 -12t-39 -1q-78 0 -127.5 -68t-66.5 -202zM1143 1578l-223 -238
q-15 -16 -37 -16h-55l164 223q13 17 25 24t35 7h91zM1079 1203q0 -31 -23 -53t-54 -22t-53.5 22t-22.5 53t22.5 54t53.5 23t54 -23t23 -54zM797 1203q0 -31 -23.5 -53t-53.5 -22q-31 0 -53.5 22t-22.5 53t22.5 54t53.5 23q15 0 29 -6.5t24.5 -17t17 -24.5t6.5 -29z" />
    <glyph glyph-name="f_f_uni01D0.liga" unicode="ff&#x1d0;" horiz-adv-x="1559" 
d="M898 964h541l-8 -70h-1l-109 -894h-92l109 894h-445l-106 -873l-41 -230q-12 -41 -49 -41h-35l140 1144h-469l-106 -873l-42 -230q-12 -41 -49 -41h-34l139 1143l-125 8q-27 3 -25 25l5 38h154l14 113q11 85 40 149.5t71.5 107.5t97.5 64.5t117 21.5q28 0 56 -5t50 -16
l-10 -47q-3 -8 -9.5 -9.5t-18 -0.5t-27.5 3.5t-37 2.5q-45 0 -84.5 -14t-71 -45.5t-53.5 -82.5t-31 -126l-16 -116h473l17 138q20 166 93 252.5t184 86.5q16 0 34.5 -1.5t29.5 -5.5l-6 -49q-1 -11 -13 -12t-39 -1q-78 0 -127.5 -68t-66.5 -202zM1215 1415h65q8 0 14.5 -3
t9.5 -8l115 -165l7 -15l13 15l155 165q11 11 27 11h63l-223 -246h-83z" />
    <glyph glyph-name="f_f_uni0209.liga" unicode="ff&#x209;" horiz-adv-x="1561" 
d="M340 964h473l17 138q12 93 38.5 157.5t66.5 105t91.5 58.5t112.5 18q34 0 54 -8t35 -34l138 -238h-46q-22 0 -33 16l-136 195q-53 0 -92.5 -15t-67.5 -47t-45.5 -83.5t-26.5 -124.5l-18 -138h539v-1l-2 -13l-6 -56h-1l-109 -894h-92l109 894h-443l-107 -873l-40 -230
q-12 -41 -49 -41h-35l139 1144h-469l-106 -873l-42 -230q-12 -41 -49 -41h-35l140 1143l-128 8q-12 2 -19 8t-5 17l4 38h157l14 113q10 85 39 149.5t72 107.5t97.5 64.5t117.5 21.5q28 0 55.5 -5t50.5 -16l-10 -47q-3 -8 -10 -9.5t-18.5 -0.5t-27 3.5t-36.5 2.5
q-45 0 -85 -14t-71 -45.5t-53 -82.5t-31 -126zM1421 1431q23 0 33.5 -7.5t18.5 -24.5l109 -238h-40q-23 0 -34 16l-151 254h64z" />
    <glyph glyph-name="f_f_uni020B.liga" unicode="ff&#x20b;" horiz-adv-x="1559" 
d="M898 964h541l-8 -70h-1l-109 -894h-92l109 894h-445l-106 -873l-41 -230q-12 -41 -49 -41h-35l140 1144h-469l-106 -873l-42 -230q-12 -41 -49 -41h-34l139 1143l-125 8q-27 3 -25 25l5 38h154l14 113q11 85 40 149.5t71.5 107.5t97.5 64.5t117 21.5q28 0 56 -5t50 -16
l-10 -47q-3 -8 -9.5 -9.5t-18 -0.5t-27.5 3.5t-37 2.5q-45 0 -84.5 -14t-71 -45.5t-53.5 -82.5t-31 -126l-16 -116h473l17 138q20 166 93 252.5t184 86.5q16 0 34.5 -1.5t29.5 -5.5l-6 -49q-1 -11 -13 -12t-39 -1q-78 0 -127.5 -68t-66.5 -202zM1449 1425q61 0 101 -19.5
t62.5 -53t28.5 -78.5t0 -95h-67q5 37 1 70.5t-19 58.5t-43 39.5t-71 14.5q-44 0 -75.5 -14.5t-53 -39.5t-33.5 -58.5t-16 -70.5h-67q6 50 23.5 95t48 78.5t75 53t105.5 19.5z" />
    <glyph glyph-name="f_f_uni1E2F.liga" unicode="ff&#x1e2f;" horiz-adv-x="1559" 
d="M898 964h541l-8 -70h-1l-109 -894h-94l110 894h-445l-106 -873l-41 -230q-12 -41 -49 -41h-34l139 1144h-466l-106 -873l-42 -230q-12 -41 -49 -41h-35l140 1143l-128 8q-27 3 -25 25l5 38h157l14 113q10 85 39 149.5t72 107.5t97.5 64.5t117.5 21.5q28 0 55.5 -5
t50.5 -16l-10 -47q-3 -8 -10 -9.5t-18.5 -0.5t-27 3.5t-36.5 2.5q-45 0 -85 -14t-71.5 -45.5t-53.5 -82.5t-31 -126l-15 -116h470l17 138q20 166 93.5 252.5t184.5 86.5q16 0 34 -1.5t30 -5.5l-6 -49q-2 -11 -14 -12t-38 -1q-78 0 -128 -68t-67 -202zM1704 1578l-223 -238
q-15 -16 -38 -16h-55l165 223q12 17 24 24t35 7h92zM1640 1203q0 -31 -23 -53t-54 -22t-53.5 22t-22.5 53t22.5 54t53.5 23t54 -23t23 -54zM1357 1203q0 -31 -23.5 -53t-53.5 -22t-53 22t-23 53q0 15 6 29t16.5 24.5t24.5 17t29 6.5t29 -6.5t24.5 -17t17 -24.5t6.5 -29z" />
    <glyph glyph-name="f_uni0237.liga" unicode="f&#x237;" horiz-adv-x="999" 
d="M339 964h540l-133 -1091q-6 -52 -26 -96t-51.5 -76.5t-75 -51t-96.5 -18.5q-29 0 -50 5t-40 16l10 48q4 9 9 10.5t12.5 0t19 -4t29.5 -2.5q74 0 114.5 44t51.5 125l124 1022h-444l-106 -874l-41 -230q-12 -41 -49 -41h-34l139 1143l-126 9q-26 3 -25 25l5 37h155l17 138
q20 166 93.5 252.5t184.5 86.5q16 0 34 -1.5t30 -5.5l-6 -49q-2 -11 -14 -12t-38 -1q-78 0 -128 -68t-67 -202z" />
    <glyph glyph-name="f_f_uni0237.liga" unicode="ff&#x237;" horiz-adv-x="1560" 
d="M899 964h541l-133 -1092q-6 -52 -26 -96t-51.5 -76.5t-75 -51t-96.5 -18.5q-29 0 -50 5.5t-40 15.5l10 49q4 9 9 10.5t12.5 0t19 -4.5t29.5 -3q74 0 114.5 44t51.5 125l124 1023h-445l-106 -874l-41 -230q-12 -41 -49 -41h-34l139 1145h-469l-106 -874l-42 -230
q-12 -41 -49 -41h-34l139 1143l-125 9q-26 3 -25 25l5 37h154l14 113q11 85 40 149.5t71.5 107.5t97.5 64.5t117 21.5q28 0 56 -5t50 -16l-10 -47q-3 -8 -9.5 -9.5t-18 -0.5t-27.5 3.5t-37 2.5q-45 0 -84.5 -14t-71 -45.5t-53.5 -82.5t-31 -126l-16 -116h473l17 138
q20 166 93.5 252.5t183.5 86.5q17 0 35 -1.5t29 -5.5l-5 -49q-2 -11 -14 -12t-39 -1q-78 0 -127.5 -68t-66.5 -202z" />
    <glyph glyph-name="f_jcircumflex.liga" unicode="f&#x135;" horiz-adv-x="999" 
d="M339 964h540l-133 -1091q-6 -52 -26 -96t-51.5 -76.5t-75 -51t-96.5 -18.5q-29 0 -50 5t-40 16l10 48q4 9 9 10.5t12.5 0t19 -4t29.5 -2.5q74 0 114.5 44t51.5 125l124 1022h-444l-106 -874l-41 -230q-12 -41 -49 -41h-34l139 1143l-126 9q-26 3 -25 25l5 37h155l17 138
q20 166 93.5 252.5t184.5 86.5q16 0 34 -1.5t30 -5.5l-6 -49q-2 -11 -14 -12t-38 -1q-78 0 -128 -68t-67 -202zM1105 1169h-60q-6 0 -13 3t-12 11l-123 166l-9 12l-11 -12l-161 -166q-12 -14 -28 -14h-62l228 246h78z" />
    <glyph glyph-name="f_lcaron.liga" unicode="f&#x13e;" horiz-adv-x="1042" 
d="M1212 1457q11 0 15 -5.5t4 -15.5t-4 -26.5t-14.5 -46t-28.5 -73.5l-45 -110q-8 -14 -16 -19t-23 -5h-24l85 301h51zM334 894l-108 -874l-42 -230q-12 -41 -49 -41h-34l140 1142l-126 9q-26 3 -24 24l4 40h155l8 66q11 88 44 163t86 129.5t125.5 85.5t161.5 31
q69 0 133 -6.5t121 -6.5h52l-175 -1426h-93l165 1356q-47 2 -99 7.5t-100 5.5q-69 0 -125.5 -23.5t-99 -67.5t-70 -107t-36.5 -141l-8 -66h263l-8 -70h-261z" />
    <glyph glyph-name="f_lcommaaccent.liga" unicode="f&#x13c;" horiz-adv-x="1042" 
d="M334 894l-108 -874l-42 -230q-12 -41 -49 -41h-34l140 1142l-126 9q-26 3 -24 24l4 40h155l8 66q11 88 44 163t86 129.5t125.5 85.5t161.5 31q69 0 133 -6.5t121 -6.5h52l-175 -1426h-93l165 1356q-47 2 -99 7.5t-100 5.5q-69 0 -125.5 -23.5t-99 -67.5t-70 -107
t-36.5 -141l-8 -66h263l-8 -70h-261zM772 -103q12 0 16 -6t4 -14q0 -11 -4.5 -28.5t-14 -46t-25.5 -69.5t-39 -98q-7 -14 -15.5 -19t-23.5 -5h-32l78 286h56z" />
    <glyph glyph-name="f_uni021B.liga" unicode="f&#x21b;" horiz-adv-x="1264" 
d="M340 964h490l65 357q3 9 9.5 16t16.5 7h47l-47 -380h288l-8 -69h-289l-69 -564q-5 -41 -8 -67t-4.5 -42.5t-2 -24.5t-0.5 -12q0 -65 30 -94t78 -29q33 0 59 10.5t44.5 23t31 23t18.5 10.5q9 0 14 -10l19 -42q-41 -42 -97.5 -67.5t-114.5 -25.5q-82 0 -128 45t-48 138
q0 6 0.5 15t2 27t5 46.5t8.5 72.5l70 567h-486l-106 -874l-42 -230q-12 -41 -49 -41h-34l139 1143l-126 9q-26 3 -25 25l5 37h154l16 126q11 85 40 149.5t72.5 107.5t98.5 64.5t118 21.5q28 0 55.5 -5.5t50.5 -15.5l-10 -48q-2 -8 -9 -9.5t-18.5 0t-27.5 4t-37 2.5
q-46 0 -86 -15t-72 -47.5t-54 -84.5t-31 -127zM904 -103q12 0 16 -6t4 -14q0 -11 -4.5 -28.5t-14 -46t-25.5 -69.5t-39 -98q-7 -14 -15.5 -19t-23.5 -5h-32l78 286h56z" />
    <glyph glyph-name="f_tcaron.liga" unicode="f&#x165;" horiz-adv-x="1264" 
d="M1217 1457q11 0 15 -5.5t4 -15.5t-4 -26.5t-14.5 -46t-28.5 -73.5l-45 -110q-8 -14 -16 -19t-23 -5h-24l85 301h51zM340 964h490l65 357q3 9 9.5 16t16.5 7h47l-47 -380h288l-8 -69h-289l-69 -564q-5 -41 -8 -67t-4.5 -42.5t-2 -24.5t-0.5 -12q0 -65 30 -94t78 -29
q33 0 59 10.5t44.5 23t31 23t18.5 10.5q9 0 14 -10l19 -42q-41 -42 -97.5 -67.5t-114.5 -25.5q-82 0 -128 45t-48 138q0 6 0.5 15t2 27t5 46.5t8.5 72.5l70 567h-486l-106 -874l-42 -230q-12 -41 -49 -41h-34l139 1143l-126 9q-26 3 -25 25l5 37h154l16 126q11 85 40 149.5
t72.5 107.5t98.5 64.5t118 21.5q28 0 55.5 -5.5t50.5 -15.5l-10 -48q-2 -8 -9 -9.5t-18.5 0t-27.5 4t-37 2.5q-46 0 -86 -15t-72 -47.5t-54 -84.5t-31 -127z" />
    <glyph glyph-name="f_uni1ECB.liga" unicode="f&#x1ecb;" horiz-adv-x="999" 
d="M339 964h540l-119 -964h-94l110 893h-442l-108 -873l-42 -230q-12 -41 -49 -41h-34l140 1142l-126 9q-26 3 -24 24l4 40h155l11 85q11 92 45 165t88 123.5t126.5 77.5t160.5 27q15 0 33.5 -1.5t36.5 -4t34 -6.5t27 -9l-9 -46q-2 -8 -9.5 -9.5t-20.5 0t-32 4t-46 2.5
q-146 0 -235 -79.5t-109 -245.5zM759 -264q0 -17 -7 -32t-18 -26t-26 -18t-30 -7q-16 0 -30.5 7t-25.5 18t-17.5 26t-6.5 32q0 35 24 60t56 25q15 0 30 -7t26 -18.5t18 -27t7 -32.5z" />
    <glyph glyph-name="f_uni1E2D.liga" unicode="f&#x1e2d;" horiz-adv-x="999" 
d="M339 964h540l-119 -964h-94l110 893h-442l-108 -873l-42 -230q-12 -41 -49 -41h-34l140 1142l-126 9q-26 3 -24 24l4 40h155l11 85q11 92 45 165t88 123.5t126.5 77.5t160.5 27q15 0 33.5 -1.5t36.5 -4t34 -6.5t27 -9l-9 -46q-2 -8 -9.5 -9.5t-20.5 0t-32 4t-46 2.5
q-146 0 -235 -79.5t-109 -245.5zM842 -212q40 0 63.5 27.5t29.5 74.5h55q-4 -36 -16.5 -67.5t-32 -54.5t-45.5 -36t-58 -13q-31 0 -56 16.5t-47.5 36t-44.5 36t-46 16.5q-38 0 -62 -28.5t-30 -73.5h-56q4 36 17 67.5t32.5 54.5t46 36t57.5 13t56.5 -16.5t47.5 -36t43.5 -36
t45.5 -16.5z" />
    <glyph glyph-name="f_uni0268.liga" unicode="f&#x268;" horiz-adv-x="1081" 
d="M734 553l42 340h-442l-108 -873l-42 -230q-12 -41 -49 -41h-34l140 1142l-126 9q-26 3 -24 24l4 40h155l11 85q11 92 45 165t88 123.5t126.5 77.5t160.5 27q15 0 33.5 -1.5t36.5 -4t34 -6.5t27 -9l-9 -46q-2 -8 -9.5 -9.5t-20.5 0t-32 4t-46 2.5q-146 0 -235 -79.5
t-109 -245.5l-12 -83h540l-51 -411h188l-8 -69h-189l-59 -484h-94l59 484h-121l8 69h122z" />
    <glyph glyph-name="f_iacute.liga" unicode="f&#xed;" horiz-adv-x="999" 
d="M338 964h541l-119 -964h-94l110 893h-443l-106 -872l-41 -230q-12 -41 -49 -41h-35l140 1141l-127 9q-26 3 -24 24l4 40h156l17 138q20 166 93 252.5t184 86.5q16 0 34.5 -1.5t29.5 -5.5l-6 -49q-1 -11 -13 -12t-39 -1q-78 0 -127.5 -68t-66.5 -202zM1078 1431l-228 -253
q-8 -10 -16 -13.5t-19 -3.5h-53l171 238q12 18 24 25t34 7h87z" />
    <glyph glyph-name="f_uni1EC9.liga" unicode="f&#x1ec9;" horiz-adv-x="999" 
d="M338 964h541l-119 -964h-94l110 893h-443l-106 -872l-41 -230q-12 -41 -49 -41h-35l140 1141l-127 9q-26 3 -24 24l4 40h156l17 138q20 166 93 252.5t184 86.5q16 0 34.5 -1.5t29.5 -5.5l-6 -49q-1 -11 -13 -12t-39 -1q-78 0 -127.5 -68t-66.5 -202zM752 1384
q55 44 134 44q68 0 97 -32.5t24 -78.5q-5 -42 -35 -72.5t-81 -45.5l-18 -79h-45l13 110q51 7 75 28t27 50q1 13 -1.5 25.5t-11 22.5t-23.5 16t-37 6q-20 0 -35 -4.5t-25.5 -10.5t-17.5 -10.5t-12 -4.5q-8 0 -13 10z" />
    <glyph glyph-name="f_f_uni1ECB.liga" unicode="ff&#x1ecb;" horiz-adv-x="1560" 
d="M1430 895l-109 -895h-92l109 895h-444l-108 -875l-42 -230q-12 -41 -49 -41h-34l141 1146h-469l-106 -874l-42 -230q-12 -41 -49 -41h-34l139 1143l-125 9q-26 3 -25 25l5 37h154l14 113q11 85 40 149.5t71.5 107.5t97.5 64.5t117 21.5q28 0 56 -5t50 -16l-10 -47
q-3 -8 -9.5 -9.5t-18 -0.5t-27.5 3.5t-37 2.5q-45 0 -84.5 -14t-71 -45.5t-53.5 -82.5t-31 -126l-16 -116h472l11 85q11 92 45 165t88 123.5t126.5 77.5t160.5 27q15 0 33.5 -1.5t36.5 -4t34 -6.5t27 -9l-9 -46q-2 -8 -9.5 -9.5t-20.5 0t-32 4t-46 2.5q-146 0 -235 -79.5
t-109 -245.5l-12 -83h540l-8 -69h-1zM1320 -264q0 -17 -7 -32t-18 -26t-26 -18t-30 -7q-16 0 -30.5 7t-25.5 18t-17.5 26t-6.5 32q0 35 24 60t56 25q15 0 30 -7t26 -18.5t18 -27t7 -32.5z" />
    <glyph glyph-name="f_f_uni1E2D.liga" unicode="ff&#x1e2d;" horiz-adv-x="1560" 
d="M1430 895l-109 -895h-92l109 895h-444l-108 -875l-42 -230q-12 -41 -49 -41h-34l141 1146h-469l-106 -874l-42 -230q-12 -41 -49 -41h-34l139 1143l-125 9q-26 3 -25 25l5 37h154l14 113q11 85 40 149.5t71.5 107.5t97.5 64.5t117 21.5q28 0 56 -5t50 -16l-10 -47
q-3 -8 -9.5 -9.5t-18 -0.5t-27.5 3.5t-37 2.5q-45 0 -84.5 -14t-71 -45.5t-53.5 -82.5t-31 -126l-16 -116h472l11 85q11 92 45 165t88 123.5t126.5 77.5t160.5 27q15 0 33.5 -1.5t36.5 -4t34 -6.5t27 -9l-9 -46q-2 -8 -9.5 -9.5t-20.5 0t-32 4t-46 2.5q-146 0 -235 -79.5
t-109 -245.5l-12 -83h540l-8 -69h-1zM1358 -212q40 0 63.5 27.5t29.5 74.5h55q-4 -36 -16.5 -67.5t-32 -54.5t-45.5 -36t-58 -13q-31 0 -56 16.5t-47.5 36t-44.5 36t-46 16.5q-38 0 -62 -28.5t-30 -73.5h-56q4 36 17 67.5t32.5 54.5t46 36t57.5 13t56.5 -16.5t47.5 -36
t43.5 -36t45.5 -16.5z" />
    <glyph glyph-name="f_f_uni0268.liga" unicode="ff&#x268;" horiz-adv-x="1589" 
d="M1296 553l42 342h-444l-108 -875l-42 -230q-12 -41 -49 -41h-34l141 1146h-469l-106 -874l-42 -230q-12 -41 -49 -41h-34l139 1143l-125 9q-26 3 -25 25l5 37h154l14 113q11 85 40 149.5t71.5 107.5t97.5 64.5t117 21.5q28 0 56 -5t50 -16l-10 -47q-3 -8 -9.5 -9.5
t-18 -0.5t-27.5 3.5t-37 2.5q-45 0 -84.5 -14t-71 -45.5t-53.5 -82.5t-31 -126l-16 -116h472l11 85q11 92 45 165t88 123.5t126.5 77.5t160.5 27q15 0 33.5 -1.5t36.5 -4t34 -6.5t27 -9l-9 -46q-2 -8 -9.5 -9.5t-20.5 0t-32 4t-46 2.5q-146 0 -235 -79.5t-109 -245.5
l-12 -83h540l-8 -69h-1l-42 -342h157l-8 -69h-157l-59 -484h-92l59 484h-155l8 69h155z" />
    <glyph glyph-name="f_f_iacute.liga" unicode="ff&#xed;" horiz-adv-x="1559" 
d="M1430 895l-109 -895h-92l109 895h-445l-106 -874l-41 -230q-12 -41 -49 -41h-34l139 1145h-469l-106 -874l-42 -230q-12 -41 -49 -41h-34l139 1143l-125 9q-26 3 -25 25l5 37h154l14 113q11 85 40 149.5t71.5 107.5t97.5 64.5t117 21.5q28 0 56 -5t50 -16l-10 -47
q-3 -8 -9.5 -9.5t-18 -0.5t-27.5 3.5t-37 2.5q-45 0 -84.5 -14t-71 -45.5t-53.5 -82.5t-31 -126l-16 -116h473l17 138q20 166 93.5 252.5t184.5 86.5q16 0 34 -1.5t30 -5.5l-6 -49q-2 -11 -14 -12t-38 -1q-78 0 -128 -68t-67 -202l-18 -138h540l-8 -69h-1zM1655 1431
l-228 -253q-8 -10 -16 -13.5t-19 -3.5h-53l171 238q12 18 24 25t34 7h87z" />
    <glyph glyph-name="f_f_uni1EC9.liga" unicode="ff&#x1ec9;" horiz-adv-x="1547" 
d="M1430 895l-109 -895h-92l109 895h-445l-106 -874l-41 -230q-12 -41 -49 -41h-34l139 1145h-469l-106 -874l-42 -230q-12 -41 -49 -41h-34l139 1143l-125 9q-26 3 -25 25l5 37h154l14 113q11 85 40 149.5t71.5 107.5t97.5 64.5t117 21.5q28 0 56 -5t50 -16l-10 -47
q-3 -8 -9.5 -9.5t-18 -0.5t-27.5 3.5t-37 2.5q-45 0 -84.5 -14t-71 -45.5t-53.5 -82.5t-31 -126l-16 -116h473l17 138q20 166 93.5 252.5t184.5 86.5q16 0 34 -1.5t30 -5.5l-6 -49q-2 -11 -14 -12t-38 -1q-78 0 -128 -68t-67 -202l-18 -138h540l-8 -69h-1zM1319 1384
q55 44 134 44q68 0 97 -32.5t24 -78.5q-5 -42 -35 -72.5t-81 -45.5l-18 -79h-45l13 110q51 7 75 28t27 50q1 13 -1.5 25.5t-11 22.5t-23.5 16t-37 6q-20 0 -35 -4.5t-25.5 -10.5t-17.5 -10.5t-12 -4.5q-8 0 -13 10z" />
    <glyph glyph-name="f_lacute.liga" unicode="f&#x13a;" horiz-adv-x="1042" 
d="M334 894l-108 -874l-42 -230q-12 -41 -49 -41h-34l140 1142l-126 9q-26 3 -24 24l4 40h155l8 66q11 88 44 163t86 129.5t125.5 85.5t161.5 31q69 0 133 -6.5t121 -6.5h52l-175 -1426h-93l165 1356q-47 2 -99 7.5t-100 5.5q-69 0 -125.5 -23.5t-99 -67.5t-70 -107
t-36.5 -141l-8 -66h263l-8 -70h-261zM1320 1841l-333 -287q-10 -8 -18 -10t-20 -2h-60l270 277q13 14 24.5 18t33.5 4h103z" />
    <glyph glyph-name="t_i.liga" unicode="ti" horiz-adv-x="1079" 
d="M951 894l-110 -894h-93l110 894h-528l-69 -563q-5 -41 -8 -67t-4.5 -42.5t-2 -24.5t-0.5 -12q0 -65 30 -94t78 -29q33 0 59 10.5t44.5 23t31 23t18.5 10.5q9 0 14 -10l19 -42q-41 -42 -97.5 -67.5t-114.5 -25.5q-82 0 -128 45t-48 138q0 6 0.5 15t2 27t5 46.5t8.5 72.5
l70 566h-131q-10 0 -16 6t-5 17l4 35l158 12l65 357q3 9 9.5 16t16.5 7h47l-47 -381h620zM1049 1338q0 -18 -7.5 -33.5t-19.5 -27.5t-27.5 -19t-31.5 -7q-17 0 -32 7t-26 19t-18 27.5t-7 33.5t7 34t18.5 28.5t26.5 19.5t32 7q16 0 31.5 -7t27.5 -19t19 -28.5t7 -34.5z" />
    <glyph glyph-name="t_igrave.liga" unicode="t&#xec;" horiz-adv-x="1079" 
d="M951 894l-110 -894h-93l110 894h-528l-69 -563q-5 -41 -8 -67t-4.5 -42.5t-2 -24.5t-0.5 -12q0 -65 30 -94t78 -29q33 0 59 10.5t44.5 23t31 23t18.5 10.5q9 0 14 -10l19 -42q-41 -42 -97.5 -67.5t-114.5 -25.5q-82 0 -128 45t-48 138q0 6 0.5 15t2 27t5 46.5t8.5 72.5
l70 566h-131q-10 0 -16 6t-5 17l4 35l158 12l65 357q3 9 9.5 16t16.5 7h47l-47 -381h620zM833 1431q22 0 32.5 -7t18.5 -25l117 -238h-50q-11 0 -18.5 3.5t-12.5 13.5l-172 253h85z" />
    <glyph glyph-name="t_iacute.liga" unicode="t&#xed;" horiz-adv-x="1079" 
d="M951 894l-110 -894h-93l110 894h-528l-69 -563q-5 -41 -8 -67t-4.5 -42.5t-2 -24.5t-0.5 -12q0 -65 30 -94t78 -29q33 0 59 10.5t44.5 23t31 23t18.5 10.5q9 0 14 -10l19 -42q-41 -42 -97.5 -67.5t-114.5 -25.5q-82 0 -128 45t-48 138q0 6 0.5 15t2 27t5 46.5t8.5 72.5
l70 566h-131q-10 0 -16 6t-5 17l4 35l158 12l65 357q3 9 9.5 16t16.5 7h47l-47 -381h620zM1177 1431l-228 -253q-8 -10 -16 -13.5t-19 -3.5h-53l171 238q12 18 24 25t34 7h87z" />
    <glyph glyph-name="t_icircumflex.liga" unicode="t&#xee;" horiz-adv-x="1079" 
d="M951 894l-110 -894h-93l110 894h-528l-69 -563q-5 -41 -8 -67t-4.5 -42.5t-2 -24.5t-0.5 -12q0 -65 30 -94t78 -29q33 0 59 10.5t44.5 23t31 23t18.5 10.5q9 0 14 -10l19 -42q-41 -42 -97.5 -67.5t-114.5 -25.5q-82 0 -128 45t-48 138q0 6 0.5 15t2 27t5 46.5t8.5 72.5
l70 566h-131q-10 0 -16 6t-5 17l4 35l158 12l65 357q3 9 9.5 16t16.5 7h47l-47 -381h620zM1190 1169h-60q-6 0 -13 3t-12 11l-123 166l-9 12q-3 -4 -11 -12l-161 -166q-12 -14 -28 -14h-62l228 246h78z" />
    <glyph glyph-name="t_idieresis.liga" unicode="t&#xef;" horiz-adv-x="1079" 
d="M951 894l-110 -894h-93l110 894h-528l-69 -563q-5 -41 -8 -67t-4.5 -42.5t-2 -24.5t-0.5 -12q0 -65 30 -94t78 -29q33 0 59 10.5t44.5 23t31 23t18.5 10.5q9 0 14 -10l19 -42q-41 -42 -97.5 -67.5t-114.5 -25.5q-82 0 -128 45t-48 138q0 6 0.5 15t2 27t5 46.5t8.5 72.5
l70 566h-131q-10 0 -16 6t-5 17l4 35l158 12l65 357q3 9 9.5 16t16.5 7h47l-47 -381h620zM922 1284q0 -16 -7 -30.5t-18.5 -25.5t-26.5 -17.5t-31 -6.5q-17 0 -31.5 6.5t-26 17.5t-18 25.5t-6.5 30.5q0 17 6.5 32t18 26.5t26 18t31.5 6.5q16 0 31 -6.5t26.5 -18t18.5 -26.5
t7 -32zM1179 1284q0 -16 -7 -30.5t-18 -25.5t-26 -17.5t-31 -6.5q-17 0 -32 6.5t-26 17.5t-17.5 25.5t-6.5 30.5q0 34 24 58.5t58 24.5q16 0 31 -6.5t26 -18t18 -26.5t7 -32z" />
    <glyph glyph-name="t_imacron.liga" unicode="t&#x12b;" horiz-adv-x="1078" 
d="M951 894l-110 -894h-93l110 894h-528l-69 -563q-5 -41 -8 -67t-4.5 -42.5t-2 -24.5t-0.5 -12q0 -65 30 -94t78 -29q33 0 59 10.5t44.5 23t31 23t18.5 10.5q9 0 14 -10l19 -42q-41 -42 -97.5 -67.5t-114.5 -25.5q-82 0 -128 45t-48 138q0 6 0.5 15t2 27t5 46.5t8.5 72.5
l70 566h-131q-10 0 -16 6t-5 17l4 35l158 12l65 357q3 9 9.5 16t16.5 7h47l-47 -381h620zM701 1317h502l-8 -65h-501z" />
    <glyph glyph-name="t_itilde.liga" unicode="t&#x129;" horiz-adv-x="1079" 
d="M951 894l-110 -894h-93l110 894h-528l-69 -563q-5 -41 -8 -67t-4.5 -42.5t-2 -24.5t-0.5 -12q0 -65 30 -94t78 -29q33 0 59 10.5t44.5 23t31 23t18.5 10.5q9 0 14 -10l19 -42q-41 -42 -97.5 -67.5t-114.5 -25.5q-82 0 -128 45t-48 138q0 6 0.5 15t2 27t5 46.5t8.5 72.5
l70 566h-131q-10 0 -16 6t-5 17l4 35l158 12l65 357q3 9 9.5 16t16.5 7h47l-47 -381h620zM1061 1280q40 0 63.5 27.5t29.5 74.5h55q-4 -36 -16.5 -67.5t-32 -54.5t-45.5 -36t-58 -13q-31 0 -56 16.5t-47.5 36t-44.5 36t-46 16.5q-38 0 -62 -28.5t-30 -73.5h-56q4 36 17 67.5
t32.5 54.5t46 36t57.5 13t56.5 -16.5t47.5 -36t43.5 -36t45.5 -16.5z" />
    <glyph glyph-name="t_ibreve.liga" unicode="t&#x12d;" horiz-adv-x="1079" 
d="M951 894l-110 -894h-93l110 894h-528l-69 -563q-5 -41 -8 -67t-4.5 -42.5t-2 -24.5t-0.5 -12q0 -65 30 -94t78 -29q33 0 59 10.5t44.5 23t31 23t18.5 10.5q9 0 14 -10l19 -42q-41 -42 -97.5 -67.5t-114.5 -25.5q-82 0 -128 45t-48 138q0 6 0.5 15t2 27t5 46.5t8.5 72.5
l70 566h-131q-10 0 -16 6t-5 17l4 35l158 12l65 357q3 9 9.5 16t16.5 7h47l-47 -381h620zM944 1168q-60 0 -100 19.5t-62.5 53.5t-29.5 79t-1 95h64q-5 -37 -0.5 -70t20 -58t44 -39.5t72.5 -14.5t75.5 14.5t52.5 39.5t33 58t16 70h64q-6 -50 -22.5 -95t-46.5 -79
t-74.5 -53.5t-104.5 -19.5z" />
    <glyph glyph-name="t_uni01D0.liga" unicode="t&#x1d0;" horiz-adv-x="1079" 
d="M951 894l-110 -894h-93l110 894h-528l-69 -563q-5 -41 -8 -67t-4.5 -42.5t-2 -24.5t-0.5 -12q0 -65 30 -94t78 -29q33 0 59 10.5t44.5 23t31 23t18.5 10.5q9 0 14 -10l19 -42q-41 -42 -97.5 -67.5t-114.5 -25.5q-82 0 -128 45t-48 138q0 6 0.5 15t2 27t5 46.5t8.5 72.5
l70 566h-131q-10 0 -16 6t-5 17l4 35l158 12l65 357q3 9 9.5 16t16.5 7h47l-47 -381h620zM1205 1415l-227 -246h-79l-172 246h61q17 0 24 -11l125 -168q2 -3 4.5 -6t4.5 -7q2 4 5 7l6 6l163 168q11 11 25 11h60z" />
    <glyph glyph-name="t_uni1E2D.liga" unicode="t&#x1e2d;" horiz-adv-x="1079" 
d="M951 894l-110 -894h-93l110 894h-528l-69 -563q-5 -41 -8 -67t-4.5 -42.5t-2 -24.5t-0.5 -12q0 -65 30 -94t78 -29q33 0 59 10.5t44.5 23t31 23t18.5 10.5q9 0 14 -10l19 -42q-41 -42 -97.5 -67.5t-114.5 -25.5q-82 0 -128 45t-48 138q0 6 0.5 15t2 27t5 46.5t8.5 72.5
l70 566h-131q-10 0 -16 6t-5 17l4 35l158 12l65 357q3 9 9.5 16t16.5 7h47l-47 -381h620zM1049 1338q0 -18 -7.5 -33.5t-19.5 -27.5t-27.5 -19t-31.5 -7q-17 0 -32 7t-26 19t-18 27.5t-7 33.5t7 34t18.5 28.5t26.5 19.5t32 7q16 0 31.5 -7t27.5 -19t19 -28.5t7 -34.5z
M861 -212q40 0 63.5 27.5t29.5 74.5h55q-4 -36 -16.5 -67.5t-32 -54.5t-45.5 -36t-58 -13q-31 0 -56 16.5t-47.5 36t-44.5 36t-46 16.5q-38 0 -62 -28.5t-30 -73.5h-56q4 36 17 67.5t32.5 54.5t46 36t57.5 13t56.5 -16.5t47.5 -36t43.5 -36t45.5 -16.5z" />
    <glyph glyph-name="t_uni1E2F.liga" unicode="t&#x1e2f;" horiz-adv-x="1079" 
d="M951 894l-110 -894h-93l110 894h-528l-69 -563q-5 -41 -8 -67t-4.5 -42.5t-2 -24.5t-0.5 -12q0 -65 30 -94t78 -29q33 0 59 10.5t44.5 23t31 23t18.5 10.5q9 0 14 -10l19 -42q-41 -42 -97.5 -67.5t-114.5 -25.5q-82 0 -128 45t-48 138q0 6 0.5 15t2 27t5 46.5t8.5 72.5
l70 566h-131q-10 0 -16 6t-5 17l4 35l158 12l65 357q3 9 9.5 16t16.5 7h47l-47 -381h620zM1240 1735l-228 -253q-8 -10 -16 -13.5t-19 -3.5h-53l171 238q12 18 24 25t34 7h87zM888 1284q0 -16 -7 -30.5t-18 -25.5t-26.5 -17.5t-31.5 -6.5t-30.5 6.5t-26 17.5t-18 25.5
t-6.5 30.5q0 17 6.5 32t18 26.5t26 18t30.5 6.5t31.5 -6.5t26.5 -18t18 -26.5t7 -32zM1221 1284q0 -16 -7 -30.5t-18 -25.5t-26.5 -17.5t-31.5 -6.5q-17 0 -31.5 6.5t-26 17.5t-18 25.5t-6.5 30.5q0 17 6.5 32t18 26.5t26 18t31.5 6.5q16 0 31.5 -6.5t26.5 -18t18 -26.5
t7 -32z" />
    <glyph glyph-name="t_uni0268.liga" unicode="t&#x268;" horiz-adv-x="1117" 
d="M950 1251q-17 0 -32 7t-26 19t-18 27.5t-7 33.5t7 34t18.5 28.5t26.5 19.5t32 7q16 0 31.5 -7t27.5 -19t19 -28.5t7 -34.5t-7.5 -33.5t-19.5 -27.5t-27.5 -19t-31.5 -7zM1062 484h-161l-60 -484h-93l60 484h-150l8 69h150l42 341h-528l-69 -563q-5 -41 -8 -67t-4.5 -42.5
t-2 -24.5t-0.5 -12q0 -65 30 -94t78 -29q33 0 59 10.5t44.5 23t31 23t18.5 10.5q9 0 14 -10l19 -42q-41 -42 -97.5 -67.5t-114.5 -25.5q-82 0 -128 45t-48 138q0 6 0.5 15t2 27t5 46.5t8.5 72.5l70 566h-131q-10 0 -16 6t-5 17l4 35l158 12l65 357q3 9 9.5 16t16.5 7h47
l-47 -381h620l-8 -69l-42 -341h161z" />
    <glyph glyph-name="t_uni020B.liga" unicode="t&#x20b;" horiz-adv-x="1079" 
d="M951 894l-110 -894h-93l110 894h-528l-69 -563q-5 -41 -8 -67t-4.5 -42.5t-2 -24.5t-0.5 -12q0 -65 30 -94t78 -29q33 0 59 10.5t44.5 23t31 23t18.5 10.5q9 0 14 -10l19 -42q-41 -42 -97.5 -67.5t-114.5 -25.5q-82 0 -128 45t-48 138q0 6 0.5 15t2 27t5 46.5t8.5 72.5
l70 566h-131q-10 0 -16 6t-5 17l4 35l158 12l65 357q3 9 9.5 16t16.5 7h47l-47 -381h620zM968 1430q60 0 100 -19.5t62.5 -53.5t29 -78.5t1.5 -95.5h-64q4 37 0 70.5t-19.5 58.5t-44 39.5t-72.5 14.5t-75.5 -14.5t-53 -39.5t-33.5 -58.5t-16 -70.5h-63q6 51 22.5 95.5
t46.5 78.5t74.5 53.5t104.5 19.5z" />
    <glyph glyph-name="t_uni0209.liga" unicode="t&#x209;" horiz-adv-x="1079" 
d="M951 894l-110 -894h-93l110 894h-528l-69 -563q-5 -41 -8 -67t-4.5 -42.5t-2 -24.5t-0.5 -12q0 -65 30 -94t78 -29q33 0 59 10.5t44.5 23t31 23t18.5 10.5q9 0 14 -10l19 -42q-41 -42 -97.5 -67.5t-114.5 -25.5q-82 0 -128 45t-48 138q0 6 0.5 15t2 27t5 46.5t8.5 72.5
l70 566h-131q-10 0 -16 6t-5 17l4 35l158 12l65 357q3 9 9.5 16t16.5 7h47l-47 -381h620zM940 1431q23 0 33.5 -7t18.5 -25l112 -238h-38q-11 0 -19 3.5t-14 13.5l-154 253h61zM697 1431q23 0 32 -7.5t19 -24.5l141 -238h-43q-11 0 -18.5 3.5t-14.5 13.5l-184 253h68z" />
    <glyph glyph-name="t_t_i.liga" unicode="tti" horiz-adv-x="1644" 
d="M1405 0h-92l110 894h-509l-69 -563q-5 -41 -8.5 -67t-5 -42.5t-2 -24.5t-0.5 -12q0 -65 30.5 -94t78.5 -29q33 0 58.5 10.5t44.5 23t31 23t18 10.5t9 -2.5t6 -7.5l18 -42q-40 -42 -97 -67.5t-114 -25.5q-82 0 -128.5 45t-47.5 138q0 6 0.5 15t2 27t4.5 46.5t9 72.5
l69 566h-491l-69 -563q-5 -41 -8 -67t-4.5 -42.5t-2 -24.5t-0.5 -12q0 -65 30 -94t78 -29q33 0 59 10.5t44.5 23t31 23t18.5 10.5q9 0 14 -10l19 -42q-41 -42 -97.5 -67.5t-114.5 -25.5q-82 0 -128 45t-48 138q0 6 0.5 15t2 27t5 46.5t8.5 72.5l70 566h-131q-10 0 -16 6
t-5 17l4 35l158 12l65 357q3 9 9.5 16t16.5 7h47l-47 -381h492l66 358q2 9 9 16t17 7h46l-47 -381h602zM1604 1338q0 -18 -7.5 -33.5t-19.5 -27.5t-27.5 -19t-31.5 -7q-17 0 -32 7t-26 19t-18 27.5t-7 33.5t7 34t18.5 28.5t26.5 19.5t32 7q16 0 31.5 -7t27.5 -19t19 -28.5
t7 -34.5z" />
    <glyph glyph-name="t_t_igrave.liga" unicode="tt&#xec;" horiz-adv-x="1643" 
d="M1405 0h-92l110 894h-509l-69 -563q-5 -41 -8.5 -67t-5 -42.5t-2 -24.5t-0.5 -12q0 -65 30.5 -94t78.5 -29q33 0 58.5 10.5t44.5 23t31 23t18 10.5t9 -2.5t6 -7.5l18 -42q-40 -42 -97 -67.5t-114 -25.5q-82 0 -128.5 45t-47.5 138q0 6 0.5 15t2 27t4.5 46.5t9 72.5
l69 566h-491l-69 -563q-5 -41 -8 -67t-4.5 -42.5t-2 -24.5t-0.5 -12q0 -65 30 -94t78 -29q33 0 59 10.5t44.5 23t31 23t18.5 10.5q9 0 14 -10l19 -42q-41 -42 -97.5 -67.5t-114.5 -25.5q-82 0 -128 45t-48 138q0 6 0.5 15t2 27t5 46.5t8.5 72.5l70 566h-131q-10 0 -16 6
t-5 17l4 35l158 12l65 357q3 9 9.5 16t16.5 7h47l-47 -381h492l66 358q2 9 9 16t17 7h46l-47 -381h602zM1396 1431q22 0 32.5 -7t18.5 -25l117 -238h-50q-11 0 -18.5 3.5t-12.5 13.5l-172 253h85z" />
    <glyph glyph-name="t_t_iacute.liga" unicode="tt&#xed;" horiz-adv-x="1643" 
d="M1405 0h-92l110 894h-509l-69 -563q-5 -41 -8.5 -67t-5 -42.5t-2 -24.5t-0.5 -12q0 -65 30.5 -94t78.5 -29q33 0 58.5 10.5t44.5 23t31 23t18 10.5t9 -2.5t6 -7.5l18 -42q-40 -42 -97 -67.5t-114 -25.5q-82 0 -128.5 45t-47.5 138q0 6 0.5 15t2 27t4.5 46.5t9 72.5
l69 566h-491l-69 -563q-5 -41 -8 -67t-4.5 -42.5t-2 -24.5t-0.5 -12q0 -65 30 -94t78 -29q33 0 59 10.5t44.5 23t31 23t18.5 10.5q9 0 14 -10l19 -42q-41 -42 -97.5 -67.5t-114.5 -25.5q-82 0 -128 45t-48 138q0 6 0.5 15t2 27t5 46.5t8.5 72.5l70 566h-131q-10 0 -16 6
t-5 17l4 35l158 12l65 357q3 9 9.5 16t16.5 7h47l-47 -381h492l66 358q2 9 9 16t17 7h46l-47 -381h602zM1755 1431l-228 -253q-8 -10 -16 -13.5t-19 -3.5h-53l171 238q12 18 24 25t34 7h87z" />
    <glyph glyph-name="t_t_icircumflex.liga" unicode="tt&#xee;" horiz-adv-x="1644" 
d="M1405 0h-92l110 894h-509l-69 -563q-5 -41 -8.5 -67t-5 -42.5t-2 -24.5t-0.5 -12q0 -65 30.5 -94t78.5 -29q33 0 58.5 10.5t44.5 23t31 23t18 10.5t9 -2.5t6 -7.5l18 -42q-40 -42 -97 -67.5t-114 -25.5q-82 0 -128.5 45t-47.5 138q0 6 0.5 15t2 27t4.5 46.5t9 72.5
l69 566h-491l-69 -563q-5 -41 -8 -67t-4.5 -42.5t-2 -24.5t-0.5 -12q0 -65 30 -94t78 -29q33 0 59 10.5t44.5 23t31 23t18.5 10.5q9 0 14 -10l19 -42q-41 -42 -97.5 -67.5t-114.5 -25.5q-82 0 -128 45t-48 138q0 6 0.5 15t2 27t5 46.5t8.5 72.5l70 566h-131q-10 0 -16 6
t-5 17l4 35l158 12l65 357q3 9 9.5 16t16.5 7h47l-47 -381h492l66 358q2 9 9 16t17 7h46l-47 -381h602zM1738 1169h-60q-6 0 -13 3t-12 11l-123 166l-9 12q-3 -4 -11 -12l-161 -166q-12 -14 -28 -14h-62l228 246h78z" />
    <glyph glyph-name="t_t_idieresis.liga" unicode="tt&#xef;" horiz-adv-x="1644" 
d="M1405 0h-92l110 894h-509l-69 -563q-5 -41 -8.5 -67t-5 -42.5t-2 -24.5t-0.5 -12q0 -65 30.5 -94t78.5 -29q33 0 58.5 10.5t44.5 23t31 23t18 10.5t9 -2.5t6 -7.5l18 -42q-40 -42 -97 -67.5t-114 -25.5q-82 0 -128.5 45t-47.5 138q0 6 0.5 15t2 27t4.5 46.5t9 72.5
l69 566h-491l-69 -563q-5 -41 -8 -67t-4.5 -42.5t-2 -24.5t-0.5 -12q0 -65 30 -94t78 -29q33 0 59 10.5t44.5 23t31 23t18.5 10.5q9 0 14 -10l19 -42q-41 -42 -97.5 -67.5t-114.5 -25.5q-82 0 -128 45t-48 138q0 6 0.5 15t2 27t5 46.5t8.5 72.5l70 566h-131q-10 0 -16 6
t-5 17l4 35l158 12l65 357q3 9 9.5 16t16.5 7h47l-47 -381h492l66 358q2 9 9 16t17 7h46l-47 -381h602zM1478 1284q0 -16 -7 -30.5t-18.5 -25.5t-26.5 -17.5t-31 -6.5q-17 0 -31.5 6.5t-26 17.5t-18 25.5t-6.5 30.5q0 17 6.5 32t18 26.5t26 18t31.5 6.5q16 0 31 -6.5
t26.5 -18t18.5 -26.5t7 -32zM1735 1284q0 -16 -7 -30.5t-18 -25.5t-26 -17.5t-31 -6.5q-17 0 -32 6.5t-26 17.5t-17.5 25.5t-6.5 30.5q0 34 24 58.5t58 24.5q16 0 31 -6.5t26 -18t18 -26.5t7 -32z" />
    <glyph glyph-name="t_t_imacron.liga" unicode="tt&#x12b;" horiz-adv-x="1643" 
d="M1405 0h-92l110 894h-509l-69 -563q-5 -41 -8.5 -67t-5 -42.5t-2 -24.5t-0.5 -12q0 -65 30.5 -94t78.5 -29q33 0 58.5 10.5t44.5 23t31 23t18 10.5t9 -2.5t6 -7.5l18 -42q-40 -42 -97 -67.5t-114 -25.5q-82 0 -128.5 45t-47.5 138q0 6 0.5 15t2 27t4.5 46.5t9 72.5
l69 566h-491l-69 -563q-5 -41 -8 -67t-4.5 -42.5t-2 -24.5t-0.5 -12q0 -65 30 -94t78 -29q33 0 59 10.5t44.5 23t31 23t18.5 10.5q9 0 14 -10l19 -42q-41 -42 -97.5 -67.5t-114.5 -25.5q-82 0 -128 45t-48 138q0 6 0.5 15t2 27t5 46.5t8.5 72.5l70 566h-131q-10 0 -16 6
t-5 17l4 35l158 12l65 357q3 9 9.5 16t16.5 7h47l-47 -381h492l66 358q2 9 9 16t17 7h46l-47 -381h602zM1272 1317h502l-8 -65h-501z" />
    <glyph glyph-name="t_t_itilde.liga" unicode="tt&#x129;" horiz-adv-x="1643" 
d="M1405 0h-92l110 894h-509l-69 -563q-5 -41 -8.5 -67t-5 -42.5t-2 -24.5t-0.5 -12q0 -65 30.5 -94t78.5 -29q33 0 58.5 10.5t44.5 23t31 23t18 10.5t9 -2.5t6 -7.5l18 -42q-40 -42 -97 -67.5t-114 -25.5q-82 0 -128.5 45t-47.5 138q0 6 0.5 15t2 27t4.5 46.5t9 72.5
l69 566h-491l-69 -563q-5 -41 -8 -67t-4.5 -42.5t-2 -24.5t-0.5 -12q0 -65 30 -94t78 -29q33 0 59 10.5t44.5 23t31 23t18.5 10.5q9 0 14 -10l19 -42q-41 -42 -97.5 -67.5t-114.5 -25.5q-82 0 -128 45t-48 138q0 6 0.5 15t2 27t5 46.5t8.5 72.5l70 566h-131q-10 0 -16 6
t-5 17l4 35l158 12l65 357q3 9 9.5 16t16.5 7h47l-47 -381h492l66 358q2 9 9 16t17 7h46l-47 -381h602zM1616 1280q40 0 63.5 27.5t29.5 74.5h55q-4 -36 -16.5 -67.5t-32 -54.5t-45.5 -36t-58 -13q-31 0 -56 16.5t-47.5 36t-44.5 36t-46 16.5q-38 0 -62 -28.5t-30 -73.5h-56
q4 36 17 67.5t32.5 54.5t46 36t57.5 13t56.5 -16.5t47.5 -36t43.5 -36t45.5 -16.5z" />
    <glyph glyph-name="t_t_ibreve.liga" unicode="tt&#x12d;" horiz-adv-x="1644" 
d="M1405 0h-92l110 894h-509l-69 -563q-5 -41 -8.5 -67t-5 -42.5t-2 -24.5t-0.5 -12q0 -65 30.5 -94t78.5 -29q33 0 58.5 10.5t44.5 23t31 23t18 10.5t9 -2.5t6 -7.5l18 -42q-40 -42 -97 -67.5t-114 -25.5q-82 0 -128.5 45t-47.5 138q0 6 0.5 15t2 27t4.5 46.5t9 72.5
l69 566h-491l-69 -563q-5 -41 -8 -67t-4.5 -42.5t-2 -24.5t-0.5 -12q0 -65 30 -94t78 -29q33 0 59 10.5t44.5 23t31 23t18.5 10.5q9 0 14 -10l19 -42q-41 -42 -97.5 -67.5t-114.5 -25.5q-82 0 -128 45t-48 138q0 6 0.5 15t2 27t5 46.5t8.5 72.5l70 566h-131q-10 0 -16 6
t-5 17l4 35l158 12l65 357q3 9 9.5 16t16.5 7h47l-47 -381h492l66 358q2 9 9 16t17 7h46l-47 -381h602zM1512 1168q-60 0 -100 19.5t-62.5 53.5t-29.5 79t-1 95h64q-5 -37 -0.5 -70t20 -58t44 -39.5t72.5 -14.5t75.5 14.5t52.5 39.5t33 58t16 70h64q-6 -50 -22.5 -95
t-46.5 -79t-74.5 -53.5t-104.5 -19.5z" />
    <glyph glyph-name="t_t_uni01D0.liga" unicode="tt&#x1d0;" horiz-adv-x="1643" 
d="M1405 0h-92l110 894h-509l-69 -563q-5 -41 -8.5 -67t-5 -42.5t-2 -24.5t-0.5 -12q0 -65 30.5 -94t78.5 -29q33 0 58.5 10.5t44.5 23t31 23t18 10.5t9 -2.5t6 -7.5l18 -42q-40 -42 -97 -67.5t-114 -25.5q-82 0 -128.5 45t-47.5 138q0 6 0.5 15t2 27t4.5 46.5t9 72.5
l69 566h-491l-69 -563q-5 -41 -8 -67t-4.5 -42.5t-2 -24.5t-0.5 -12q0 -65 30 -94t78 -29q33 0 59 10.5t44.5 23t31 23t18.5 10.5q9 0 14 -10l19 -42q-41 -42 -97.5 -67.5t-114.5 -25.5q-82 0 -128 45t-48 138q0 6 0.5 15t2 27t5 46.5t8.5 72.5l70 566h-131q-10 0 -16 6
t-5 17l4 35l158 12l65 357q3 9 9.5 16t16.5 7h47l-47 -381h492l66 358q2 9 9 16t17 7h46l-47 -381h602zM1773 1415l-227 -246h-79l-172 246h61q17 0 24 -11l125 -168q2 -3 4.5 -6t4.5 -7q2 4 5 7l6 6l163 168q11 11 25 11h60z" />
    <glyph glyph-name="t_t_uni1E2D.liga" unicode="tt&#x1e2d;" horiz-adv-x="1644" 
d="M1405 0h-92l110 894h-509l-69 -563q-5 -41 -8.5 -67t-5 -42.5t-2 -24.5t-0.5 -12q0 -65 30.5 -94t78.5 -29q33 0 58.5 10.5t44.5 23t31 23t18 10.5t9 -2.5t6 -7.5l18 -42q-40 -42 -97 -67.5t-114 -25.5q-82 0 -128.5 45t-47.5 138q0 6 0.5 15t2 27t4.5 46.5t9 72.5
l69 566h-491l-69 -563q-5 -41 -8 -67t-4.5 -42.5t-2 -24.5t-0.5 -12q0 -65 30 -94t78 -29q33 0 59 10.5t44.5 23t31 23t18.5 10.5q9 0 14 -10l19 -42q-41 -42 -97.5 -67.5t-114.5 -25.5q-82 0 -128 45t-48 138q0 6 0.5 15t2 27t5 46.5t8.5 72.5l70 566h-131q-10 0 -16 6
t-5 17l4 35l158 12l65 357q3 9 9.5 16t16.5 7h47l-47 -381h492l66 358q2 9 9 16t17 7h46l-47 -381h602zM1425 -212q40 0 63.5 27.5t29.5 74.5h55q-4 -36 -16.5 -67.5t-32 -54.5t-45.5 -36t-58 -13q-31 0 -56 16.5t-47.5 36t-44.5 36t-46 16.5q-38 0 -62 -28.5t-30 -73.5h-56
q4 36 17 67.5t32.5 54.5t46 36t57.5 13t56.5 -16.5t47.5 -36t43.5 -36t45.5 -16.5zM1599 1338q0 -18 -7.5 -33.5t-19.5 -27.5t-27.5 -19t-31.5 -7q-17 0 -32 7t-26 19t-18 27.5t-7 33.5t7 34t18.5 28.5t26.5 19.5t32 7q16 0 31.5 -7t27.5 -19t19 -28.5t7 -34.5z" />
    <glyph glyph-name="t_t_uni1E2F.liga" unicode="tt&#x1e2f;" horiz-adv-x="1643" 
d="M1405 0h-92l110 894h-509l-69 -563q-5 -41 -8.5 -67t-5 -42.5t-2 -24.5t-0.5 -12q0 -65 30.5 -94t78.5 -29q33 0 58.5 10.5t44.5 23t31 23t18 10.5t9 -2.5t6 -7.5l18 -42q-40 -42 -97 -67.5t-114 -25.5q-82 0 -128.5 45t-47.5 138q0 6 0.5 15t2 27t4.5 46.5t9 72.5
l69 566h-491l-69 -563q-5 -41 -8 -67t-4.5 -42.5t-2 -24.5t-0.5 -12q0 -65 30 -94t78 -29q33 0 59 10.5t44.5 23t31 23t18.5 10.5q9 0 14 -10l19 -42q-41 -42 -97.5 -67.5t-114.5 -25.5q-82 0 -128 45t-48 138q0 6 0.5 15t2 27t5 46.5t8.5 72.5l70 566h-131q-10 0 -16 6
t-5 17l4 35l158 12l65 357q3 9 9.5 16t16.5 7h47l-47 -381h492l66 358q2 9 9 16t17 7h46l-47 -381h602zM1800 1735l-228 -253q-8 -10 -16 -13.5t-19 -3.5h-53l171 238q12 18 24 25t34 7h87zM1447 1284q0 -16 -7 -30.5t-18 -25.5t-26.5 -17.5t-31.5 -6.5t-30.5 6.5t-26 17.5
t-18 25.5t-6.5 30.5q0 17 6.5 32t18 26.5t26 18t30.5 6.5t31.5 -6.5t26.5 -18t18 -26.5t7 -32zM1780 1284q0 -16 -7 -30.5t-18 -25.5t-26.5 -17.5t-31.5 -6.5q-17 0 -31.5 6.5t-26 17.5t-18 25.5t-6.5 30.5q0 17 6.5 32t18 26.5t26 18t31.5 6.5q16 0 31.5 -6.5t26.5 -18
t18 -26.5t7 -32z" />
    <glyph glyph-name="t_t_uni0268.liga" unicode="tt&#x268;" horiz-adv-x="1693" 
d="M1521 1251q-17 0 -32 7t-26 19t-18 27.5t-7 33.5t7 34t18.5 28.5t26.5 19.5t32 7q16 0 31.5 -7t27.5 -19t19 -28.5t7 -34.5t-7.5 -33.5t-19.5 -27.5t-27.5 -19t-31.5 -7zM1633 484h-168l-60 -484h-92l60 484h-144l8 69h144l42 341h-509l-69 -563q-5 -41 -8.5 -67
t-5 -42.5t-2 -24.5t-0.5 -12q0 -65 30.5 -94t78.5 -29q33 0 58.5 10.5t44.5 23t31 23t18 10.5t9 -2.5t6 -7.5l18 -42q-40 -42 -97 -67.5t-114 -25.5q-82 0 -128.5 45t-47.5 138q0 6 0.5 15t2 27t4.5 46.5t9 72.5l69 566h-491l-69 -563q-5 -41 -8 -67t-4.5 -42.5t-2 -24.5
t-0.5 -12q0 -65 30 -94t78 -29q33 0 59 10.5t44.5 23t31 23t18.5 10.5q9 0 14 -10l19 -42q-41 -42 -97.5 -67.5t-114.5 -25.5q-82 0 -128 45t-48 138q0 6 0.5 15t2 27t5 46.5t8.5 72.5l70 566h-131q-10 0 -16 6t-5 17l4 35l158 12l65 357q3 9 9.5 16t16.5 7h47l-47 -381h492
l66 358q2 9 9 16t17 7h46l-47 -381h602l-51 -410h168z" />
    <glyph glyph-name="t_t_uni020B.liga" unicode="tt&#x20b;" horiz-adv-x="1643" 
d="M1405 0h-92l110 894h-509l-69 -563q-5 -41 -8.5 -67t-5 -42.5t-2 -24.5t-0.5 -12q0 -65 30.5 -94t78.5 -29q33 0 58.5 10.5t44.5 23t31 23t18 10.5t9 -2.5t6 -7.5l18 -42q-40 -42 -97 -67.5t-114 -25.5q-82 0 -128.5 45t-47.5 138q0 6 0.5 15t2 27t4.5 46.5t9 72.5
l69 566h-491l-69 -563q-5 -41 -8 -67t-4.5 -42.5t-2 -24.5t-0.5 -12q0 -65 30 -94t78 -29q33 0 59 10.5t44.5 23t31 23t18.5 10.5q9 0 14 -10l19 -42q-41 -42 -97.5 -67.5t-114.5 -25.5q-82 0 -128 45t-48 138q0 6 0.5 15t2 27t5 46.5t8.5 72.5l70 566h-131q-10 0 -16 6
t-5 17l4 35l158 12l65 357q3 9 9.5 16t16.5 7h47l-47 -381h492l66 358q2 9 9 16t17 7h46l-47 -381h602zM1536 1430q60 0 100 -19.5t62.5 -53.5t29 -78.5t1.5 -95.5h-64q4 37 0 70.5t-19.5 58.5t-44 39.5t-72.5 14.5t-75.5 -14.5t-53 -39.5t-33.5 -58.5t-16 -70.5h-63
q6 51 22.5 95.5t46.5 78.5t74.5 53.5t104.5 19.5z" />
    <glyph glyph-name="t_t_uni0209.liga" unicode="tt&#x209;" horiz-adv-x="1644" 
d="M1405 0h-92l110 894h-509l-69 -563q-5 -41 -8.5 -67t-5 -42.5t-2 -24.5t-0.5 -12q0 -65 30.5 -94t78.5 -29q33 0 58.5 10.5t44.5 23t31 23t18 10.5t9 -2.5t6 -7.5l18 -42q-40 -42 -97 -67.5t-114 -25.5q-82 0 -128.5 45t-47.5 138q0 6 0.5 15t2 27t4.5 46.5t9 72.5
l69 566h-491l-69 -563q-5 -41 -8 -67t-4.5 -42.5t-2 -24.5t-0.5 -12q0 -65 30 -94t78 -29q33 0 59 10.5t44.5 23t31 23t18.5 10.5q9 0 14 -10l19 -42q-41 -42 -97.5 -67.5t-114.5 -25.5q-82 0 -128 45t-48 138q0 6 0.5 15t2 27t5 46.5t8.5 72.5l70 566h-131q-10 0 -16 6
t-5 17l4 35l158 12l65 357q3 9 9.5 16t16.5 7h47l-47 -381h492l66 358q2 9 9 16t17 7h46l-47 -381h602zM1503 1431q23 0 33.5 -7t18.5 -25l112 -238h-38q-11 0 -19 3.5t-14 13.5l-154 253h61zM1260 1431q23 0 32 -7.5t19 -24.5l141 -238h-43q-11 0 -18.5 3.5t-14.5 13.5
l-184 253h68z" />
    <glyph glyph-name=".notdef" horiz-adv-x="1025" 
d="M262 1134q21 20 46.5 38t55.5 32t65.5 22.5t77.5 8.5q54 0 100.5 -15.5t81 -45t54 -71t19.5 -93.5q0 -55 -16.5 -94.5t-41 -69t-53.5 -52t-54.5 -42.5t-44 -39.5t-20.5 -44.5l-10 -114h-65l-6 122q-2 31 14 54.5t40.5 44.5t54 42t54.5 47.5t42 60t17 80.5q0 36 -14 64
t-37.5 47.5t-55 30t-66.5 10.5q-46 0 -79 -11.5t-56 -26t-36.5 -26t-20.5 -11.5q-14 0 -21 11zM410 265q0 32 22 55t55 23q32 0 54 -23t22 -55t-22 -55t-54 -23q-33 0 -55 23t-22 55zM47 1415h931v-1415h-931v1415zM82 36h859v1343h-859v-1343z" />
    <glyph glyph-name="glyph1" horiz-adv-x="0" 
 />
    <glyph glyph-name="glyph1" horiz-adv-x="0" 
 />
    <glyph glyph-name="space" unicode=" " horiz-adv-x="504" 
 />
    <glyph glyph-name="space" unicode="&#xa0;" horiz-adv-x="504" 
 />
    <glyph glyph-name="A" unicode="A" horiz-adv-x="1217" 
d="M888 513l-175 720q-4 18 -8 39.5t-8 46.5q-10 -25 -19.5 -46.5t-17.5 -40.5l-352 -719h580zM1117 0h-77q-14 0 -22 7.5t-11 18.5l-101 414h-634l-203 -414q-5 -11 -16 -18.5t-24 -7.5h-76l706 1415h99z" />
    <glyph glyph-name="Aogonek" unicode="&#x104;" horiz-adv-x="1217" 
d="M888 513l-175 720q-4 18 -8 39.5t-8 46.5q-10 -25 -19.5 -46.5t-17.5 -40.5l-352 -719h580zM1183 -285q-29 -24 -70 -38.5t-84 -14.5q-66 0 -104 33t-38 91q0 34 13 65t34 58t48 50t56 41q-24 1 -31 26l-101 414h-634l-203 -414q-5 -11 -16 -18.5t-24 -7.5h-76l706 1415
h99l359 -1415h-10q-21 -12 -46.5 -30t-47 -42.5t-36 -54t-14.5 -63.5q0 -41 25.5 -64t65.5 -23q25 0 43 5.5t30.5 11.5t20 11.5t12.5 5.5q9 0 12 -8z" />
    <glyph glyph-name="AE" unicode="&#xc6;" horiz-adv-x="1725" 
d="M871 513v821q-10 -24 -20.5 -46t-23.5 -43l-456 -732h500zM964 1333v-577h566l-11 -80h-555v-594h599l-12 -82h-680v440h-545l-258 -414q-7 -11 -18 -18.5t-25 -7.5h-77l887 1415h890l-10 -82h-751z" />
    <glyph glyph-name="B" unicode="B" horiz-adv-x="1176" 
d="M557 79q186 0 285 90.5t99 256.5q0 58 -20.5 104.5t-60 79.5t-97 51t-131.5 18h-325l-74 -600h324zM388 1336l-72 -585h279q97 0 168 29t117 76.5t68 108.5t22 126q0 119 -74.5 182t-229.5 63h-278zM675 1415q102 0 176 -21t123 -60.5t72.5 -96.5t23.5 -129
q0 -68 -21.5 -129.5t-62 -112t-99 -87.5t-131.5 -55q139 -23 211.5 -98.5t72.5 -196.5q0 -98 -33.5 -177.5t-97 -135.5t-154.5 -86t-206 -30h-425l174 1415h377z" />
    <glyph glyph-name="C" unicode="C" horiz-adv-x="1258" 
d="M667 69q73 0 131 12.5t103 31t77.5 40t55.5 40t37 31t22 12.5q9 0 13 -6l36 -42q-92 -93 -211.5 -148.5t-279.5 -55.5q-122 0 -220.5 44t-168 125t-107 194t-37.5 251q0 185 56.5 338.5t155 263.5t232 170.5t288.5 60.5q73 0 131 -11.5t106.5 -33.5t89 -55t78.5 -75
l-32 -40q-11 -12 -26 -12q-9 0 -20.5 10.5t-29 26t-43 34t-62 34t-85.5 26t-113 10.5q-132 0 -246 -52t-198 -148t-132 -233t-48 -307q0 -124 33 -223.5t92 -169t141 -106.5t181 -37z" />
    <glyph glyph-name="Ccedilla" unicode="&#xc7;" horiz-adv-x="1258" 
d="M617 -15q-115 6 -207 52.5t-157 127t-100 190.5t-35 243q0 185 56.5 338.5t155 263.5t232 170.5t288.5 60.5q73 0 131 -11.5t106.5 -33.5t89 -55t78.5 -75l-32 -40q-11 -12 -26 -12q-9 0 -20.5 10.5t-29 26t-43 34t-62 34t-85.5 26t-113 10.5q-132 0 -246 -52t-198 -148
t-132 -233t-48 -307q0 -124 33 -223.5t92 -169t141 -106.5t181 -37q73 0 131 12.5t103 31t77.5 40t55.5 40t37 31t22 12.5q9 0 13 -6l36 -42q-90 -91 -203 -145t-265 -59l-31 -78q75 -15 113.5 -42t38.5 -78q0 -34 -14.5 -60.5t-39.5 -45t-60 -28t-75 -9.5q-37 0 -71 11.5
t-57 30.5l14 28q6 11 17 11q5 0 12 -5.5t18.5 -11.5t28.5 -11.5t43 -5.5q51 0 79 24.5t28 66.5q0 22 -11 37t-31 25t-47.5 15.5t-60.5 10.5z" />
    <glyph glyph-name="D" unicode="D" horiz-adv-x="1413" 
d="M1318 815q0 -125 -24.5 -234t-70 -199.5t-110 -161.5t-144.5 -120t-173 -74.5t-196 -25.5h-476l174 1415h476q125 0 226 -42.5t171.5 -120.5t108.5 -189t38 -248zM1215 813q0 121 -31.5 218t-90 164t-142 103t-187.5 36h-376l-155 -1253h376q132 0 243 49.5t192 143.5
t126 230t45 309z" />
    <glyph glyph-name="Eth" unicode="&#xd0;" horiz-adv-x="1420" 
d="M620 81q132 0 242.5 49.5t191 143.5t125.5 230t45 309q0 121 -31.5 218t-90 164t-142 103t-186.5 36h-377l-72 -586h371l-7 -62h-371l-74 -605h376zM784 1415q125 0 225.5 -42.5t171 -120.5t108.5 -189t38 -248q0 -187 -54 -338t-150 -257t-227.5 -163t-285.5 -57h-476
l84 686h-198l8 62h198l82 667h476z" />
    <glyph glyph-name="E" unicode="E" horiz-adv-x="1078" 
d="M388 1333l-71 -576h567l-11 -80h-566l-73 -595h684l-11 -82h-783l174 1415h782l-11 -82h-681z" />
    <glyph glyph-name="Eogonek" unicode="&#x118;" horiz-adv-x="1078" 
d="M388 1333l-71 -576h567l-11 -80h-566l-73 -595h684l-11 -82h-87q-21 -12 -46.5 -30t-47 -42.5t-36 -54t-14.5 -63.5q0 -41 25.5 -64t65.5 -23q25 0 43 5.5t30.5 11.5t20 11.5t12.5 5.5q9 0 12 -8l11 -34q-29 -24 -70 -38.5t-84 -14.5q-66 0 -104 33t-38 91q0 34 13 65
t34 58t48 50t56 41h-627l174 1415h782l-11 -82h-681z" />
    <glyph glyph-name="F" unicode="F" horiz-adv-x="1058" 
d="M388 1333l-74 -599h591l-12 -83h-589l-80 -651h-100l174 1415h782l-11 -82h-681z" />
    <glyph glyph-name="G" unicode="G" horiz-adv-x="1367" 
d="M1183 139q-53 -37 -108.5 -66t-118 -48.5t-132.5 -30t-152 -10.5q-127 0 -229.5 44.5t-174.5 125.5t-110.5 194.5t-38.5 251.5q0 187 55 340.5t154 262.5t236 168.5t301 59.5q77 0 140 -11.5t115 -33.5t95 -54t81 -73l-31 -39q-16 -25 -42 -11q-14 6 -37.5 28t-65 46
t-105.5 43t-158 19q-141 0 -258 -52t-201.5 -148t-131 -233.5t-46.5 -308.5q0 -124 33 -223.5t94 -169.5t147 -107.5t193 -37.5q67 0 123 7.5t105 22.5t94 36.5t90 48.5l47 384h-247q-11 0 -17.5 6.5t-4.5 15.5l6 55h363z" />
    <glyph glyph-name="H" unicode="H" horiz-adv-x="1403" 
d="M1306 1415l-174 -1415h-100l83 679h-808l-83 -679h-100l174 1415h100l-81 -661h808l81 661h100z" />
    <glyph glyph-name="Hbar" unicode="&#x126;" horiz-adv-x="1422" 
d="M1175 1040h-808l-35 -286h808zM1443 1040h-168l-128 -1040h-100l83 679h-808l-83 -679h-100l128 1040h-157l7 62h158l38 313h100l-38 -313h808l38 313h100l-38 -313h167z" />
    <glyph glyph-name="I" unicode="I" horiz-adv-x="495" 
d="M224 0h-100l173 1415h100z" />
    <glyph glyph-name="Iogonek" unicode="&#x12e;" horiz-adv-x="495" 
d="M211 0q-21 -12 -46.5 -30t-47 -42.5t-36 -54t-14.5 -63.5q0 -41 25.5 -64t65.5 -23q25 0 43 5.5t30.5 11.5t20 11.5t12.5 5.5q9 0 12 -8l11 -34q-29 -24 -70 -38.5t-84 -14.5q-66 0 -104 33t-38 91q0 34 13 65t34 58t48 50t56 41h-17l173 1415h100l-173 -1415h-14z" />
    <glyph glyph-name="J" unicode="J" horiz-adv-x="781" 
d="M577 441q-14 -117 -50.5 -203t-91.5 -142.5t-127.5 -84t-159.5 -27.5q-54 0 -98 7t-87 22l7 54q2 8 7.5 15t19.5 7q10 0 22 -3.5t29.5 -7.5t42 -7.5t59.5 -3.5q59 0 113 18.5t97.5 62t74 115t43.5 176.5l120 976h99z" />
    <glyph glyph-name="K" unicode="K" horiz-adv-x="1180" 
d="M316 760h77q17 0 30 1.5t24.5 6t21.5 11.5t21 19l592 588q16 18 30.5 23.5t33.5 5.5h81l-642 -637q-18 -19 -33 -30.5t-32 -17.5q35 -12 58 -50l511 -680h-80q-26 0 -36 6.5t-18 19.5l-470 614q-8 11 -15.5 19t-18 13.5t-24.5 8t-36 2.5h-84l-84 -683h-99l173 1417h100z
" />
    <glyph glyph-name="L" unicode="L" horiz-adv-x="933" 
d="M849 85l-11 -85h-714l174 1415h99l-164 -1330h616z" />
    <glyph glyph-name="Lslash" unicode="&#x141;" horiz-adv-x="958" 
d="M874 85l-11 -85h-714l72 588l-195 -101l9 64q0 11 5 17.5t15 11.5l177 93l91 742h99l-85 -693l404 215l-7 -61q-2 -10 -6 -17.5t-15 -12.5l-387 -208l-68 -553h616z" />
    <glyph glyph-name="Lcaron" unicode="&#x13d;" horiz-adv-x="933" 
d="M793 1457q20 0 20 -21q0 -10 -4.5 -26.5t-15 -46t-28.5 -73.5l-45 -110q-7 -14 -15.5 -19t-23.5 -5h-31l85 301h58zM849 85l-11 -85h-714l174 1415h99l-164 -1330h616z" />
    <glyph glyph-name="M" unicode="M" horiz-adv-x="1686" 
d="M1589 1415l-174 -1415h-87l149 1209q3 25 9 53l-630 -990q-16 -25 -41 -25h-16q-27 0 -35 25l-402 993q0 -30 -3 -55l-148 -1210h-87l174 1415h68q14 0 21 -3.5t15 -15.5l404 -996q4 -11 7 -22.5t6 -23.5q10 22 24 46l638 996q10 12 17.5 15.5t21.5 3.5h69z" />
    <glyph glyph-name="N" unicode="N" horiz-adv-x="1403" 
d="M1306 1415l-174 -1415h-46q-13 0 -21 5.5t-16 16.5l-686 1232q-1 -12 -1.5 -23t-2.5 -22l-148 -1209h-87l174 1415h49q14 0 20 -3.5t14 -15.5l686 -1232q1 14 1.5 26.5t2.5 23.5l148 1201h87z" />
    <glyph glyph-name="Eng" unicode="&#x14a;" horiz-adv-x="1403" 
d="M1142 77l-7 -56h-1l-7 -57q-9 -75 -31.5 -135t-60 -101.5t-89 -64t-117.5 -22.5q-38 0 -69.5 7.5t-64.5 22.5l14 39q5 13 12 16.5t13 3.5q10 0 32 -9t63 -9q88 0 141.5 60.5t68.5 182.5l9 68l-686 1227q-1 -14 -1.5 -27.5t-2.5 -25.5l-148 -1197h-86l173 1415h49
q14 0 21 -4t14 -15l688 -1229q0 14 1 28t3 26l146 1194h87l-159 -1299z" />
    <glyph glyph-name="O" unicode="O" horiz-adv-x="1473" 
d="M1381 816q0 -187 -54.5 -340t-151.5 -262t-229 -169t-286 -60q-124 0 -224 44.5t-170.5 125.5t-108.5 194t-38 250q0 186 55 339.5t151.5 263t228 169.5t284.5 60q125 0 225.5 -44.5t171 -125.5t108.5 -194.5t38 -250.5zM1278 814q0 123 -31.5 221.5t-90.5 168
t-142.5 107t-186.5 37.5q-130 0 -241 -52t-192.5 -149t-127.5 -235t-46 -310q0 -123 32 -221.5t91 -167.5t142 -106.5t186 -37.5q132 0 243 51.5t192 148.5t126.5 234.5t45.5 310.5z" />
    <glyph glyph-name="Oslash" unicode="&#xd8;" horiz-adv-x="1473" 
d="M375 179q57 -54 131.5 -82t164.5 -28q132 0 243 51.5t192 148.5t126.5 234.5t45.5 310.5q0 111 -26 201.5t-74 159.5zM1137 1224q-58 60 -136 92t-174 32q-130 0 -241 -52t-192.5 -149t-127.5 -235t-46 -310q0 -118 29.5 -213t83.5 -164zM1241 1253q68 -81 104 -191.5
t36 -245.5q0 -187 -54.5 -340t-151.5 -262t-229 -169t-286 -60q-104 0 -190.5 31t-153.5 89l-144 -179q-14 -17 -31 -24t-33 -7h-41l204 253q-73 81 -112.5 195.5t-39.5 255.5q0 186 55 339.5t151.5 263t228 169.5t284.5 60q110 0 200 -34.5t159 -97.5l122 151
q14 16 23.5 22.5t28.5 6.5h52z" />
    <glyph glyph-name="OE" unicode="&#x152;" horiz-adv-x="2037" 
d="M622 68q120 0 222 53t176 151t116 238t42 314q0 120 -27.5 217t-79 165.5t-125.5 106t-167 37.5q-119 0 -221 -53.5t-176.5 -152.5t-117 -239t-42.5 -313q0 -120 28 -217t80 -165.5t126 -105t166 -36.5zM1351 1333l-71 -577h562l-9 -80h-562l-73 -594h677l-11 -82h-767
l39 318q-43 -78 -99.5 -139.5t-124.5 -104t-146 -65t-165 -22.5q-111 0 -199.5 43.5t-151 122.5t-96 190t-33.5 246q0 189 50.5 344t139 265.5t208 171.5t258.5 61q87 0 159.5 -26.5t129.5 -75t97.5 -118t63.5 -155.5l44 359h767l-9 -82h-678z" />
    <glyph glyph-name="P" unicode="P" horiz-adv-x="1078" 
d="M543 651q94 0 169.5 30t129 83t82.5 126t29 159q0 136 -81.5 211.5t-244.5 75.5h-240l-84 -685h240zM637 1415q208 0 312 -93.5t104 -262.5q0 -108 -37 -197.5t-105 -154t-164 -100.5t-214 -36h-240l-70 -571h-99l173 1415h340z" />
    <glyph glyph-name="Thorn" unicode="&#xde;" horiz-adv-x="1077" 
d="M509 366q94 0 169.5 30t129 83t82.5 126t29 159q0 137 -81 211.5t-246 74.5h-240l-84 -684h241zM603 1129q207 0 311.5 -93t104.5 -262q0 -108 -37 -197.5t-105.5 -154t-164.5 -100.5t-213 -36h-241l-35 -286h-99l173 1415h100l-35 -286h241z" />
    <glyph glyph-name="Q" unicode="Q" horiz-adv-x="1473" 
d="M220 602q0 -123 32 -221.5t91 -167.5t142 -106.5t186 -37.5q132 0 243 51.5t192 148.5t126.5 234.5t45.5 310.5q0 123 -31.5 221.5t-90.5 168t-142.5 107t-186.5 37.5q-130 0 -241 -52t-192.5 -149t-127.5 -235t-46 -310zM925 36q-61 -25 -127 -38t-138 -13
q-124 0 -224 44.5t-170.5 125.5t-108.5 194t-38 250q0 186 55 339.5t151.5 263t228 169.5t284.5 60q125 0 225.5 -44.5t171 -125.5t108.5 -194.5t38 -250.5q0 -128 -26.5 -241t-75 -207t-117 -168t-152.5 -123l290 -389h-78q-39 0 -59 24z" />
    <glyph glyph-name="R" unicode="R" horiz-adv-x="1128" 
d="M534 715q95 0 170.5 26t128.5 74t81 116t28 151q0 128 -81 191t-237 63h-236l-77 -621h223zM633 1415q205 0 306.5 -81.5t101.5 -236.5q0 -92 -30 -168.5t-85 -133.5t-132.5 -93.5t-171.5 -48.5q19 -12 35 -39l369 -614h-85q-16 0 -26.5 5.5t-18.5 19.5l-341 576
q-14 22 -30.5 31t-53.5 9h-169l-79 -641h-99l173 1415h336z" />
    <glyph glyph-name="S" unicode="S" horiz-adv-x="996" 
d="M910 1244q-11 -17 -26 -17q-12 0 -29 19t-46.5 41.5t-76 41.5t-116.5 19q-76 0 -135.5 -24.5t-101 -67t-63.5 -99t-22 -120.5q0 -61 25 -102.5t65.5 -71t92 -51t106 -42t106 -45t92 -59.5t65.5 -85t25 -123q0 -96 -33 -182.5t-94.5 -151t-149.5 -102.5t-197 -38
q-128 0 -216 49.5t-148 135.5l33 43q14 14 28 14q9 0 20.5 -12t28 -29.5t39 -38t54.5 -38t74.5 -29.5t98.5 -12q84 0 152 28.5t116 78.5t73.5 117.5t25.5 145.5q0 62 -25 103.5t-65.5 70.5t-92 49t-105.5 40t-106 44t-92.5 59.5t-65 87t-24.5 126.5q0 81 29 156t83.5 132.5
t133.5 91.5t180 34q102 0 179 -37.5t133 -109.5z" />
    <glyph glyph-name="Scedilla" unicode="&#x15e;" horiz-adv-x="996" 
d="M910 1244q-11 -17 -26 -17q-12 0 -29 19t-46.5 41.5t-76 41.5t-116.5 19q-76 0 -135.5 -24.5t-101 -67t-63.5 -99t-22 -120.5q0 -61 25 -102.5t65.5 -71t92 -51t106 -42t106 -45t92 -59.5t65.5 -85t25 -123q0 -93 -30.5 -176t-88 -147t-139 -104t-183.5 -46l-31 -79
q75 -15 113.5 -42t38.5 -78q0 -34 -14.5 -60.5t-39.5 -45t-60 -28t-75 -9.5q-37 0 -71 11.5t-57 30.5l14 28q6 11 17 11q5 0 12 -5.5t18.5 -11.5t28.5 -11.5t43 -5.5q51 0 79 24.5t28 66.5q0 22 -11 37t-31 25t-47.5 15.5t-60.5 10.5l49 116q-119 5 -201 53.5t-139 130.5
l33 43q14 14 28 14q9 0 20.5 -12t28 -29.5t39 -38t54.5 -38t74.5 -29.5t98.5 -12q84 0 152 28.5t116 78.5t73.5 117.5t25.5 145.5q0 62 -25 103.5t-65.5 70.5t-92 49t-105.5 40t-106 44t-92.5 59.5t-65 87t-24.5 126.5q0 81 29 156t83.5 132.5t133.5 91.5t180 34
q102 0 179 -37.5t133 -109.5z" />
    <glyph glyph-name="T" unicode="T" horiz-adv-x="1065" 
d="M1127 1331h-455l-164 -1331h-99l164 1331h-459l10 84h1013z" />
    <glyph glyph-name="Tbar" unicode="&#x166;" horiz-adv-x="1107" 
d="M693 1331l-59 -481h312l-7 -62h-313l-97 -788h-99l97 788h-317l7 62h318l59 481h-459l10 84h1013l-10 -84h-455z" />
    <glyph glyph-name="U" unicode="U" horiz-adv-x="1353" 
d="M612 70q93 0 170.5 36t136 99t96.5 149t50 185l108 876h99l-107 -876q-15 -117 -62 -218.5t-120.5 -176.5t-170.5 -118t-212 -43q-114 0 -200 43t-141 118t-77 176.5t-8 218.5l107 876h99l-107 -875q-12 -99 4.5 -185t59.5 -149.5t112.5 -99.5t162.5 -36z" />
    <glyph glyph-name="Uogonek" unicode="&#x172;" horiz-adv-x="1351" 
d="M1272 1415l-107 -876q-13 -104 -51.5 -195.5t-98.5 -163.5t-139.5 -121t-174.5 -67h1q-21 -12 -46.5 -30t-47 -42.5t-36 -54t-14.5 -63.5q0 -41 25.5 -64t65.5 -23q25 0 43 5.5t30.5 11.5t20 11.5t12.5 5.5q9 0 12 -8l11 -34q-29 -24 -70 -38.5t-84 -14.5q-66 0 -104 33
t-38 91q0 32 11.5 61t30.5 55t44 48.5t52 40.5h-20q-114 0 -200 43t-141 118t-77 176.5t-8 218.5l107 876h99l-107 -875q-12 -99 4.5 -185t59.5 -149.5t112.5 -99.5t162.5 -36t170.5 36t136 99t96.5 149t50 185l108 876h99z" />
    <glyph glyph-name="V" unicode="V" horiz-adv-x="1212" 
d="M1287 1415l-710 -1415h-89l-364 1415h79q14 0 22 -7.5t10 -18.5l294 -1181q5 -21 10 -45t8 -50q9 26 18.5 50t20.5 45l583 1181q5 11 15.5 18.5t24.5 7.5h78z" />
    <glyph glyph-name="W" unicode="W" horiz-adv-x="1876" 
d="M1930 1415l-583 -1415h-89l-232 1233q-3 21 -6 53l-9.5 -28.5t-9.5 -24.5l-535 -1233h-88l-236 1415h77q30 0 32 -26l188 -1176q2 -19 3.5 -39.5t3.5 -42.5q7 22 14 43t15 39l511 1176q5 11 15 18.5t24 7.5h22q26 0 33 -26l221 -1176q3 -18 5.5 -38.5t4.5 -42.5
q6 22 13 42t13 39l476 1176q3 11 15 18.5t26 7.5h76z" />
    <glyph glyph-name="X" unicode="X" horiz-adv-x="1166" 
d="M673 761l396 -761h-89q-14 0 -20 8t-11 16l-345 680q-6 -14 -15 -24l-500 -656q-17 -24 -40 -24h-98l584 756l-350 659h89q14 0 20 -5t12 -16l301 -587q7 14 15 26l432 564q12 18 32 18h99z" />
    <glyph glyph-name="Y" unicode="Y" horiz-adv-x="1103" 
d="M600 583l-73 -583h-99l73 584l-381 831h88q26 0 34 -25l299 -668q6 -17 11 -33.5t8 -33.5q8 17 17 33.5t20 33.5l464 668q7 11 16 18t23 7h83z" />
    <glyph glyph-name="Z" unicode="Z" horiz-adv-x="1097" 
d="M1123 1382q-2 -9 -5.5 -15.5t-10.5 -15.5l-974 -1269h824l-11 -82h-959l5 33q2 8 5.5 14.5t8.5 14.5l976 1271h-807l11 82h942z" />
    <glyph glyph-name="a" unicode="a" horiz-adv-x="997" 
d="M792 917q-30 11 -62 15.5t-65 4.5q-100 0 -191 -49t-160 -131t-110 -188t-41 -220q0 -134 45.5 -208.5t141.5 -74.5q57 0 112 32t105.5 90t94.5 139.5t79 180.5zM727 346q-38 -80 -83.5 -146.5t-97.5 -113.5t-109 -73t-118 -26q-62 0 -109.5 24.5t-79 69.5t-47.5 109
t-16 144q0 87 22.5 170.5t62.5 158.5t96 138t124 109t145 72t159 26q59 0 111.5 -10.5t102.5 -36.5l-117 -961h-46q-20 0 -27 11t-7 25z" />
    <glyph glyph-name="aogonek" unicode="&#x105;" horiz-adv-x="997" 
d="M792 917q-30 11 -62 15.5t-65 4.5q-100 0 -191 -49t-160 -131t-110 -188t-41 -220q0 -134 45.5 -208.5t141.5 -74.5q57 0 112 32t105.5 90t94.5 139.5t79 180.5zM764 0q-21 -12 -46.5 -30t-47 -42.5t-36 -54t-14.5 -63.5q0 -41 25.5 -64t65.5 -23q25 0 43 5.5t30.5 11.5
t20 11.5t12.5 5.5q9 0 12 -8l11 -34q-29 -24 -70 -38.5t-84 -14.5q-66 0 -104 33t-38 91q0 35 14 67t36.5 60t51.5 51.5t59 41.5q-7 5 -9.5 13t-2.5 17l34 310q-38 -80 -83.5 -146.5t-97.5 -113.5t-109 -73t-118 -26q-62 0 -109.5 24.5t-79 69.5t-47.5 109t-16 144
q0 87 22.5 170.5t62.5 158.5t96 138t124 109t145 72t159 26q59 0 111.5 -10.5t102.5 -36.5l-117 -961h-9z" />
    <glyph glyph-name="ae" unicode="&#xe6;" horiz-adv-x="1474" 
d="M651 502q-138 -5 -237.5 -25t-163 -54.5t-94 -83.5t-30.5 -112q0 -46 13 -79t37 -54.5t57 -32t72 -10.5q61 0 116.5 22.5t100 65t74.5 104.5t40 142zM1090 940q-71 0 -129 -27t-102.5 -76.5t-74 -119.5t-42.5 -157q151 5 252 24.5t162.5 49.5t87.5 69t26 84
q0 72 -49 112.5t-131 40.5zM1372 185q-48 -51 -94 -88.5t-94 -62t-99.5 -36t-109.5 -11.5q-116 0 -194.5 70.5t-107.5 203.5q-28 -77 -73.5 -130t-98 -85.5t-108 -47t-104.5 -14.5q-56 0 -102.5 13.5t-80 41.5t-52 71.5t-18.5 103.5q0 75 35 137.5t110 108t193 72.5t284 31
l11 85q17 139 -27.5 213t-150.5 74q-66 0 -114.5 -20t-83.5 -43.5t-58 -43.5t-37 -20q-17 0 -28 18l-12 28q81 78 162.5 118t180.5 40q114 0 172 -60t69 -166q57 106 148 165.5t210 59.5q55 0 101.5 -16t80.5 -45.5t53 -70t19 -88.5q0 -58 -31 -109.5t-103 -91t-191 -63.5
t-294 -25q-3 -39 -3 -82q0 -172 69.5 -264.5t190.5 -92.5q53 0 95.5 11.5t76.5 29.5t59.5 38t45.5 38t34.5 29.5t25.5 11.5q12 0 21 -10z" />
    <glyph glyph-name="b" unicode="b" horiz-adv-x="1031" 
d="M197 206q22 -40 49.5 -67.5t58.5 -44.5t64.5 -24.5t68.5 -7.5q63 0 117.5 25.5t99 69.5t79 102.5t58 123.5t36 133.5t12.5 133.5q0 134 -51 208.5t-149 74.5q-57 0 -114.5 -32t-110.5 -90t-100 -140t-83 -182zM253 659q39 79 86.5 143.5t101 110.5t112 71.5t118.5 25.5
q65 0 114 -25t82 -70.5t50 -110.5t17 -145q0 -77 -16 -156.5t-45.5 -154t-72 -140.5t-96.5 -115t-118.5 -77.5t-136.5 -28.5q-84 0 -154.5 38.5t-112.5 114.5l-19 -108q-5 -16 -11 -24t-24 -8h-47l176 1455h93z" />
    <glyph glyph-name="c" unicode="c" horiz-adv-x="911" 
d="M801 182q-53 -59 -100.5 -97t-93 -60t-92.5 -30t-100 -8q-86 0 -149.5 29.5t-105.5 82.5t-63 126t-21 159q0 79 16.5 156.5t47.5 147.5t75 129t99 102t119.5 67.5t137.5 24.5q49 0 88.5 -9.5t72.5 -27t60 -42.5t50 -56l-28 -33q-9 -11 -21 -11q-10 0 -24.5 16t-39 34.5
t-63.5 34.5t-98 16q-84 0 -156.5 -45t-126 -121t-84 -175.5t-30.5 -207.5q0 -69 15.5 -128t48 -102t81.5 -67t116 -24q53 0 95 11.5t74.5 28.5t57 37.5t43.5 37.5t32.5 28.5t24.5 11.5t21 -10l21 -26v0z" />
    <glyph glyph-name="ccedilla" unicode="&#xe7;" horiz-adv-x="911" 
d="M385 -12q-78 5 -136.5 36.5t-96.5 84t-57 122.5t-19 153q0 79 16.5 156.5t47.5 147.5t75 129t99 102t119.5 67.5t137.5 24.5q49 0 88.5 -9.5t72.5 -27t60 -42.5t50 -56l-28 -33q-9 -11 -21 -11q-10 0 -24.5 16t-39 34.5t-63.5 34.5t-98 16q-84 0 -156.5 -45t-126 -121
t-84 -175.5t-30.5 -207.5q0 -69 15.5 -128t48 -102t81.5 -67t116 -24q53 0 95 11.5t74.5 28.5t57 37.5t43.5 37.5t32.5 28.5t24.5 11.5t21 -10l21 -26q-50 -56 -94.5 -92.5t-87.5 -58.5t-86.5 -32t-91.5 -12l-32 -81q75 -15 113.5 -42t38.5 -78q0 -34 -14.5 -60.5t-39.5 -45
t-60 -28t-75 -9.5q-37 0 -71 11.5t-57 30.5l14 28q6 11 17 11q5 0 12 -5.5t18.5 -11.5t28.5 -11.5t43 -5.5q51 0 79 24.5t28 66.5q0 22 -11 37t-31 25t-47.5 15.5t-60.5 10.5z" />
    <glyph glyph-name="c_h.dlig" horiz-adv-x="1912" 
d="M1140 696q40 74 88.5 132.5t102 99t110 61.5t112.5 21q65 0 111 -25t73 -73t35.5 -117.5t-2.5 -158.5l-75 -636h-94l75 636q17 142 -19 218.5t-135 76.5q-54 0 -110 -27.5t-108.5 -78.5t-99.5 -123.5t-83 -162.5l-65 -539h-94l169 1399q-40 49 -93 78t-117 29t-113 -23.5
t-82 -62t-50 -88.5t-17 -103q0 -64 24.5 -136.5t70.5 -130.5q49 -32 88 -86l-28 -33q-9 -11 -21 -11q-10 0 -24.5 16t-39 34.5t-63.5 34.5t-98 16q-84 0 -156.5 -45t-126 -121t-84 -175.5t-30.5 -207.5q0 -69 15.5 -128t48 -102t81.5 -67t116 -24q53 0 95 11.5t74.5 28.5
t57 37.5t43.5 37.5t32.5 28.5t24.5 11.5t21 -10l21 -26q-53 -59 -100.5 -97t-93 -60t-92.5 -30t-100 -8q-86 0 -149.5 29.5t-105.5 82.5t-63 126t-21 159q0 79 16.5 156.5t47.5 147.5t75 129t99 102t119.5 67.5t137.5 24.5q50 0 89 -10q-35 57 -56 121t-21 125
q0 65 23.5 123t67.5 101.5t107 69t143 25.5q70 0 121.5 -17.5t88.5 -38t62 -38t42 -17.5l-7 -4z" />
    <glyph glyph-name="c_k.dlig" horiz-adv-x="1771" 
d="M801 182q-53 -59 -100.5 -97t-93 -60t-92.5 -30t-100 -8q-86 0 -149.5 29.5t-105.5 82.5t-63 126t-21 159q0 79 16.5 156.5t47.5 147.5t75 129t99 102t119.5 67.5t137.5 24.5q49 0 91 -11q-35 57 -56 121t-21 126q0 65 23.5 123t67.5 101.5t107.5 69t143.5 25.5
q67 0 117.5 -16.5t87.5 -37t62.5 -38t42.5 -19.5h1h3l-4 -2l-108 -885h38q17 0 28.5 4.5t25.5 18.5l412 379q11 12 23 18.5t29 6.5h81l-455 -417q-11 -11 -20 -19t-20 -14q13 -8 22.5 -18.5t17.5 -24.5l364 -502h-79q-14 0 -24 4.5t-18 18.5l-330 448q-13 19 -26 25t-41 6
h-36l-61 -502h-93l170 1394q-40 51 -94 81.5t-120 30.5q-64 0 -113 -23.5t-82 -62t-49.5 -88.5t-16.5 -103q0 -33 6.5 -68.5t18.5 -71t30 -69t42 -62.5q24 -17 44.5 -37.5t38.5 -44.5l-28 -33q-9 -11 -21 -11q-10 0 -24.5 16t-39 34.5t-63.5 34.5t-98 16q-84 0 -156.5 -45
t-126 -121t-84 -175.5t-30.5 -207.5q0 -69 15.5 -128t48 -102t81.5 -67t116 -24q53 0 95 11.5t74.5 28.5t57 37.5t43.5 37.5t32.5 28.5t24.5 11.5t21 -10l21 -26v0z" />
    <glyph glyph-name="c_t.dlig" horiz-adv-x="1592" 
d="M1169 331q-5 -41 -8 -67t-4.5 -42.5t-2 -24.5t-0.5 -12q0 -65 30 -94t78 -29q33 0 59 10.5t44.5 23t31 23t18.5 10.5q9 0 14 -10l19 -42q-41 -42 -97.5 -67.5t-114.5 -25.5q-82 0 -128 45t-48 138q0 6 0.5 15t2 27t5 46.5t8.5 72.5l68 556h-131q-22 0 -20 24l5 36l157 13
l22 97l32 170q15 68 6.5 121.5t-36 91t-73 57t-104.5 19.5q-77 0 -138 -25t-104 -67t-66 -97.5t-24.5 -117t19.5 -125t67 -120.5q25 -17 46 -38t40 -47l-28 -33q-9 -11 -21 -11q-10 0 -24.5 16t-39 34.5t-63.5 34.5t-98 16q-84 0 -156.5 -45t-126 -121t-84 -175.5
t-30.5 -207.5q0 -69 15.5 -128t48 -102t81.5 -67t116 -24q53 0 95 11.5t74.5 28.5t57 37.5t43.5 37.5t32.5 28.5t24.5 11.5t21 -10l21 -26q-53 -59 -100.5 -97t-93 -60t-92.5 -30t-100 -8q-86 0 -149.5 29.5t-105.5 82.5t-63 126t-21 159q0 79 16.5 156.5t47.5 147.5t75 129
t99 102t119.5 67.5t137.5 24.5q50 0 96 -11q-37 62 -51 127.5t-5.5 127.5t38 117t79 96.5t119 65.5t156.5 24q77 0 133.5 -24t92 -66t49.5 -98t6 -120l-36 -295h286l-8 -71h-288z" />
    <glyph glyph-name="ccedilla_t.dlig" horiz-adv-x="1592" 
d="M801 182q-53 -59 -99.5 -96.5t-92 -59t-91.5 -30.5t-98 -9l-32 -81q75 -15 113.5 -42t38.5 -78q0 -34 -14.5 -60.5t-39.5 -45t-60 -28t-75 -9.5q-37 0 -71 11.5t-57 30.5l14 28q6 11 17 11q5 0 12 -5.5t18.5 -11.5t28.5 -11.5t43 -5.5q51 0 79 24.5t28 66.5q0 22 -11 37
t-31 25t-47.5 15.5t-60.5 10.5l51 121q-73 9 -127 41.5t-90 84t-53.5 120t-17.5 148.5q0 79 16.5 156.5t47.5 147.5t75 129t99 102t119.5 67.5t137.5 24.5q52 0 96 -12q-37 62 -51 127.5t-5.5 128t38 117.5t79 96.5t119 65.5t156.5 24q77 0 133.5 -24t92 -66t49.5 -98
t6 -120l-37 -295h287l-8 -71h-288l-69 -553q-5 -41 -8 -67t-4.5 -42.5t-2 -24.5t-0.5 -12q0 -65 30 -94t78 -29q33 0 59 10.5t44.5 23t31 23t18.5 10.5q9 0 14 -10l19 -42q-41 -42 -97.5 -67.5t-114.5 -25.5q-82 0 -128 45t-48 138q0 6 0.5 15t2 27t5 46.5t8.5 72.5l68 556
h-131q-22 0 -20 24l5 36l157 12l19 87l35 181q15 68 6.5 121.5t-36 91t-73 57t-104.5 19.5q-77 0 -138 -25t-104 -67.5t-66.5 -98t-25 -117t20 -125t67.5 -120.5q25 -17 46 -38t40 -46l-28 -33q-9 -11 -21 -11q-10 0 -24.5 16t-39 34.5t-63.5 34.5t-98 16q-84 0 -156.5 -45
t-126 -121t-84 -175.5t-30.5 -207.5q0 -69 15.5 -128t48 -102t81.5 -67t116 -24q53 0 95 11.5t74.5 28.5t57 37.5t43.5 37.5t32.5 28.5t24.5 11.5t21 -10l21 -26v0z" />
    <glyph glyph-name="d" unicode="d" horiz-adv-x="1032" 
d="M809 793q-22 39 -49.5 66.5t-58.5 44t-65 24t-68 7.5q-63 0 -117.5 -25.5t-99 -69.5t-79 -102t-58 -123t-36 -134t-12.5 -133q0 -134 51 -209t149 -75q57 0 114 32t110.5 90t100 139.5t82.5 180.5zM983 1455l-178 -1455h-46q-20 0 -27 11t-7 25l33 313
q-39 -81 -87.5 -147.5t-102.5 -114.5t-113 -74t-120 -26q-65 0 -114 25t-82 71t-50 111t-17 146q0 76 16 155.5t45.5 154t72 140t96.5 114.5t118 77.5t137 28.5q81 0 149.5 -35.5t111.5 -105.5l73 586h92z" />
    <glyph glyph-name="dcaron" unicode="&#x10f;" horiz-adv-x="1032" 
d="M1205 1457q11 0 15 -5.5t4 -15.5t-4 -26.5t-14.5 -46t-28.5 -73.5l-45 -110q-8 -14 -16 -19t-23 -5h-24l85 301h51zM809 793q-22 39 -49.5 66.5t-58.5 44t-65 24t-68 7.5q-63 0 -117.5 -25.5t-99 -69.5t-79 -102t-58 -123t-36 -134t-12.5 -133q0 -134 51 -209t149 -75
q57 0 114 32t110.5 90t100 139.5t82.5 180.5zM983 1455l-178 -1455h-46q-20 0 -27 11t-7 25l33 313q-39 -81 -87.5 -147.5t-102.5 -114.5t-113 -74t-120 -26q-65 0 -114 25t-82 71t-50 111t-17 146q0 76 16 155.5t45.5 154t72 140t96.5 114.5t118 77.5t137 28.5
q81 0 149.5 -35.5t111.5 -105.5l73 586h92z" />
    <glyph glyph-name="dcroat" unicode="&#x111;" horiz-adv-x="1032" 
d="M808 785q-22 39 -49.5 65.5t-58.5 43t-64.5 24t-67.5 7.5q-63 0 -117.5 -25t-99 -67.5t-79 -99.5t-58 -121t-36 -132t-12.5 -132q0 -134 51 -209t149 -75q57 0 114 32t110.5 90t100 139.5t82.5 180.5zM1087 1158h-140l-142 -1158h-46q-20 0 -27 11t-7 25l33 313
q-39 -81 -87.5 -147.5t-102.5 -114.5t-113 -74t-120 -26q-65 0 -114 25t-82 71t-50 111t-17 146q0 76 16 155t45.5 152t72 137.5t96.5 112.5t118 75.5t137 27.5q81 0 149 -35t111 -104l37 297h-193q-22 0 -28.5 10t-3.5 27l5 25h228l29 235h92l-29 -235h140z" />
    <glyph glyph-name="eth" unicode="&#xf0;" horiz-adv-x="1042" 
d="M438 61q163 0 264.5 126.5t134.5 381.5q-9 51 -30 101t-56.5 89.5t-86.5 64t-119 24.5q-90 0 -160.5 -36t-118.5 -98t-73 -144.5t-25 -176.5q0 -77 21 -138.5t57 -104.5t85.5 -66t106.5 -23zM740 1230q44 -41 80 -92t61.5 -114t39.5 -138t14 -164q0 -159 -32 -293.5
t-96 -232.5t-158.5 -153t-220.5 -55q-76 0 -140.5 28.5t-111.5 80.5t-73.5 126t-26.5 165q0 109 32.5 205.5t93 169.5t146 115.5t190.5 42.5q49 0 97 -13.5t90 -42t76.5 -72.5t56.5 -104q6 174 -40.5 296.5t-135.5 201.5l-171 -146l-17 29q-5 7 -4 15.5t8 14.5l141 121
q-51 36 -110 60.5t-128 39.5q-32 9 -19 40l13 30q81 -14 158.5 -44.5t144.5 -81.5l161 136l16 -29q4 -7 3.5 -16t-10.5 -16z" />
    <glyph glyph-name="e" unicode="e" horiz-adv-x="937" 
d="M573 939q-80 0 -144.5 -33.5t-114 -90.5t-83 -131.5t-49.5 -155.5q127 14 219 32.5t156 39t104 44.5t61.5 49.5t29 52.5t7.5 56q0 21 -9.5 45.5t-31.5 44.5t-57.5 33.5t-87.5 13.5zM818 185q-49 -52 -95.5 -89.5t-94 -61.5t-98.5 -35.5t-109 -11.5q-83 0 -147.5 27.5
t-108.5 78t-67 123t-23 162.5q0 75 15 151t44.5 146t73 131t99.5 106t124 71t147 26q73 0 123.5 -20.5t82 -51t45.5 -66t14 -66.5q0 -41 -11 -78t-39 -70t-76 -62t-122.5 -53.5t-178.5 -44.5t-244 -35q-2 -20 -3.5 -41t-1.5 -41q0 -149 67.5 -233t203.5 -84q53 0 95.5 11.5
t76 29.5t59 38t45.5 38t34.5 29.5t26.5 11.5t21 -10z" />
    <glyph glyph-name="eogonek" unicode="&#x119;" horiz-adv-x="937" 
d="M573 939q-80 0 -144.5 -33.5t-114 -90.5t-83 -131.5t-49.5 -155.5q127 14 219 32.5t156 39t104 44.5t61.5 49.5t29 52.5t7.5 56q0 21 -9.5 45.5t-31.5 44.5t-57.5 33.5t-87.5 13.5zM613 -285q-29 -24 -70 -38.5t-84 -14.5q-66 0 -104 33t-38 91q0 31 11 59.5t29.5 54
t42.5 48t50 40.5q-8 -1 -14.5 -1h-14.5q-83 0 -147.5 27.5t-108.5 78t-67 123t-23 162.5q0 75 15 151t44.5 146t73 131t99.5 106t124 71t147 26q73 0 123.5 -20.5t82 -51t45.5 -66t14 -66.5q0 -41 -11 -78t-39 -70t-76 -62t-122.5 -53.5t-178.5 -44.5t-244 -35
q-2 -20 -3.5 -41t-1.5 -41q0 -149 67.5 -233t203.5 -84q53 0 95.5 11.5t76 29.5t59 38t45.5 38t34.5 29.5t26.5 11.5t21 -10l22 -26q-72 -76 -139 -121.5t-142 -63.5q-21 -12 -46.5 -30t-47 -42.5t-36 -54t-14.5 -63.5q0 -41 25.5 -64t65.5 -23q25 0 43 5.5t30.5 11.5
t20 11.5t12.5 5.5q9 0 12 -8z" />
    <glyph glyph-name="f" unicode="f" horiz-adv-x="616" 
d="M331 894l-106 -873l-42 -230q-12 -41 -49 -41h-34l139 1143l-125 8q-12 2 -18 8t-5 18l4 37h152l16 126q11 85 40 149.5t72.5 107.5t98.5 64.5t118 21.5q28 0 55.5 -5.5t50.5 -15.5l-10 -48q-2 -8 -9 -9.5t-18.5 0t-27.5 4t-37 2.5q-46 0 -86 -15t-72 -47.5t-54 -84.5
t-31 -127l-16 -123h281l-10 -70h-277z" />
    <glyph glyph-name="g" unicode="g" horiz-adv-x="924" 
d="M418 425q64 0 114.5 27t85 70.5t53 99t18.5 111.5q0 104 -55.5 156.5t-147.5 52.5q-65 0 -115 -25.5t-84 -67.5t-52 -96.5t-18 -111.5q0 -106 54 -161t147 -55zM613 93q-144 21 -251 11t-177.5 -42t-105.5 -81t-36 -104q0 -43 19.5 -76.5t55.5 -56t87 -34.5t113 -12
q79 0 143 21t109.5 56t70.5 80t25 93q1 49 -15 84t-39 64zM930 960l-3 -32q-2 -10 -8 -17.5t-20 -9.5l-162 -13q18 -31 28 -68.5t10 -83.5q-1 -55 -14.5 -100t-33.5 -82.5t-43.5 -70t-43.5 -63.5t-33 -63t-13 -68q-1 -28 11 -52t30 -48t38.5 -48t38.5 -52t29.5 -61t11.5 -74
q-1 -63 -32.5 -121.5t-89.5 -103.5t-139.5 -72t-181.5 -27q-79 0 -144.5 16t-113 46.5t-73.5 74.5t-26 100q1 84 51.5 146t135 99.5t194.5 48.5t230 -5q-17 23 -29 49t-12 58q0 35 12 71t46 87q-40 -28 -86 -43t-100 -15q-57 0 -106 18t-84 53.5t-55 87t-20 119.5
q0 69 24.5 135.5t71 118.5t114.5 83.5t155 31.5q103 0 176 -50h259z" />
    <glyph glyph-name="g.salt" horiz-adv-x="1018" 
d="M795 789q-21 41 -49 69.5t-60 46.5t-66.5 26t-68.5 8q-61 0 -113 -24.5t-94.5 -67t-75 -98.5t-54.5 -118.5t-33.5 -128t-11.5 -126.5q0 -64 13 -117.5t38 -91.5t62.5 -59.5t86.5 -21.5q54 0 108.5 29.5t106 85t97 135.5t81.5 182zM913 995l-118 -964q-11 -88 -43.5 -161
t-87 -126t-131 -82.5t-173.5 -29.5q-106 0 -181.5 34.5t-124.5 88.5l23 29q7 8 13 12t16 4q12 0 29.5 -15.5t46.5 -34t72 -34t108 -15.5q74 0 133 24t102 66.5t69.5 102.5t35.5 132l40 328q-39 -79 -85 -142.5t-97.5 -108.5t-107.5 -69t-114 -24q-65 0 -114 26.5t-82 74
t-49.5 113.5t-16.5 144q0 74 15 150.5t43 148t69 134t92.5 109.5t113.5 74t132 27q83 0 154.5 -38t113.5 -114l22 111q7 25 31 25h51z" />
    <glyph glyph-name="h" unicode="h" horiz-adv-x="1031" 
d="M259 696q40 74 88.5 132.5t102 99t110 61.5t112.5 21q65 0 111 -25t73 -73t35.5 -117.5t-2.5 -158.5l-75 -636h-94l75 636q17 142 -19 218.5t-135 76.5q-54 0 -110 -27.5t-108.5 -78.5t-99.5 -123.5t-83 -162.5l-65 -539h-94l176 1455h94z" />
    <glyph glyph-name="hcircumflex" unicode="&#x125;" horiz-adv-x="1031" 
d="M155 1552q-7 -5 -16 -7.5t-17 -2.5h-71l242 199h87l192 -199h-72q-6 0 -14.5 2.5t-14.5 7.5l-134 131q-2 2 -3.5 3t-3.5 3q-2 -2 -8 -6zM259 696q40 74 88.5 132.5t102 99t110 61.5t112.5 21q65 0 111 -25t73 -73t35.5 -117.5t-2.5 -158.5l-75 -636h-94l75 636
q17 142 -19 218.5t-135 76.5q-54 0 -110 -27.5t-108.5 -78.5t-99.5 -123.5t-83 -162.5l-65 -539h-94l176 1455h94z" />
    <glyph glyph-name="hbar" unicode="&#x127;" horiz-adv-x="1031" 
d="M258 685q40 75 88.5 133.5t102 99t109.5 61.5t113 21q65 0 111 -25t73 -73t35.5 -117.5t-2.5 -158.5l-74 -626h-94l74 626q17 142 -19 218.5t-135 76.5q-54 0 -110 -27.5t-108.5 -78.5t-99.5 -124t-83 -163l-64 -528h-94l140 1157h-166l8 64h166l28 234h94l-28 -234h243
l-5 -34q-6 -30 -39 -30h-207z" />
    <glyph glyph-name="i" unicode="i" horiz-adv-x="423" 
d="M306 995l-121 -995h-93l121 995h93zM379 1338q0 -18 -7.5 -33.5t-19.5 -27.5t-27.5 -19t-31.5 -7q-17 0 -32 7t-26 19t-18 27.5t-7 33.5t7 34t18.5 28.5t26.5 19.5t32 7q16 0 31.5 -7t27.5 -19t19 -28.5t7 -34.5z" />
    <glyph glyph-name="iogonek" unicode="&#x12f;" horiz-adv-x="423" 
d="M172 0q-21 -12 -46.5 -30t-47 -42.5t-36 -54t-14.5 -63.5q0 -41 25.5 -64t65.5 -23q25 0 43 5.5t30.5 11.5t20 11.5t12.5 5.5q9 0 12 -8l11 -34q-29 -24 -70 -38.5t-84 -14.5q-66 0 -104 33t-38 91q0 34 13 65t34 58t48 50t56 41h-11l121 995h93l-121 -995h-13zM294 1427
q16 0 31.5 -7t27.5 -19t19 -28.5t7 -34.5t-7.5 -33.5t-19.5 -27.5t-27.5 -19t-31.5 -7q-17 0 -32 7t-26 19t-18 27.5t-7 33.5t7 34t18.5 28.5t26.5 19.5t32 7z" />
    <glyph glyph-name="dotlessi" unicode="&#x131;" horiz-adv-x="423" 
d="M306 995l-121 -995h-93l121 995h93z" />
    <glyph glyph-name="i_j.dlig" horiz-adv-x="974" 
d="M286 1251q-17 0 -32 7t-26 19t-18 27.5t-7 33.5t7 34t18.5 28.5t26.5 19.5t32 7q16 0 31.5 -7t27.5 -19t19 -28.5t7 -34.5t-7.5 -33.5t-19.5 -27.5t-27.5 -19t-31.5 -7zM776 995h92l-125 -1022q-10 -81 -35 -144t-67 -107t-102 -67t-140 -23q-33 0 -65.5 8t-52.5 19
l10 44q4 10 11.5 11t19 -1.5t28 -6t40.5 -3.5q121 0 182 67.5t78 202.5l28 224q-76 -101 -165 -155.5t-181 -54.5q-128 0 -183 98.5t-33 276.5l75 633h91l-75 -633q-17 -143 18.5 -219.5t136.5 -76.5q87 0 173 65.5t157 180.5zM855 1427q16 0 31.5 -7t27.5 -19t19 -28.5
t7 -34.5t-7 -33.5t-19 -27.5t-27.5 -19t-31.5 -7q-17 0 -32 7t-26.5 19t-18.5 27.5t-7 33.5t7 34t18.5 28.5t26.5 19.5t32 7z" />
    <glyph glyph-name="j" unicode="j" horiz-adv-x="422" 
d="M306 995l-138 -1122q-6 -52 -26 -96t-51.5 -76.5t-75 -51t-96.5 -18.5q-29 0 -50 5t-40 16l10 48q4 9 9 10.5t12.5 0t19 -4t29.5 -2.5q74 0 114.5 44t51.5 125l138 1122h93zM380 1338q0 -18 -7 -33.5t-19 -27.5t-27.5 -19t-31.5 -7q-17 0 -32 7t-26.5 19t-18.5 27.5
t-7 33.5t7 34t18.5 28.5t26.5 19.5t32 7q16 0 31.5 -7t27.5 -19t19 -28.5t7 -34.5z" />
    <glyph glyph-name="uni0237" unicode="&#x237;" horiz-adv-x="422" 
d="M306 995l-138 -1122q-6 -52 -26 -96t-51.5 -76.5t-75 -51t-96.5 -18.5q-29 0 -50 5t-40 16l10 48q4 9 9 10.5t12.5 0t19 -4t29.5 -2.5q74 0 114.5 44t51.5 125l138 1122h93z" />
    <glyph glyph-name="k" unicode="k" horiz-adv-x="885" 
d="M351 1455l-109 -887h38q17 0 28.5 4.5t25.5 18.5l412 379q11 12 23 18.5t29 6.5h81l-455 -417q-11 -11 -20 -19t-20 -14q13 -8 22.5 -18.5t17.5 -24.5l364 -502h-79q-14 0 -24 4.5t-18 18.5l-330 448q-13 19 -26 25t-41 6h-36l-61 -502h-93l178 1455h93z" />
    <glyph glyph-name="kgreenlandic" unicode="&#x138;" horiz-adv-x="883" 
d="M296 995l-53 -427h36q12 0 25 3t30 20l412 379q11 12 22.5 18.5t28.5 6.5h81l-453 -417q-22 -22 -41 -33q14 -8 23 -18.5t17 -24.5l364 -502h-79q-14 0 -24 4.5t-18 18.5l-330 448q-13 19 -26.5 25t-40.5 6h-35l-62 -502h-93l123 995h93z" />
    <glyph glyph-name="lslash" unicode="&#x142;" horiz-adv-x="538" 
d="M543 951v-50q0 -11 -4 -18.5t-15 -12.5l-176 -83l-96 -787h-92l91 749l-194 -89v52q0 19 18 29l185 88l76 626h93l-72 -588z" />
    <glyph glyph-name="lcaron" unicode="&#x13e;" horiz-adv-x="418" 
d="M604 1457q20 0 20 -21q0 -10 -4.5 -26.5t-15 -46t-28.5 -73.5l-45 -110q-7 -14 -15.5 -19t-23.5 -5h-23l85 301h50zM90 0l176 1455h93l-177 -1455h-92z" />
    <glyph glyph-name="m" unicode="m" horiz-adv-x="1560" 
d="M81 0l120 998h43q35 0 35 -36l-28 -278q78 155 180 240.5t215 85.5q58 0 96 -21t59 -61.5t27 -99.5t0 -135q39 80 85.5 139.5t98 99t105.5 59t107 19.5q65 0 107.5 -25t65.5 -73t27.5 -117.5t-6.5 -158.5l-75 -636h-93l75 636q9 71 7.5 126t-16 92.5t-44 56.5t-78.5 19
t-99.5 -22.5t-99 -67.5t-92 -113t-78.5 -160l-67 -567h-93l75 636q9 71 9 126t-13 92.5t-41.5 56.5t-77.5 19q-114 0 -210.5 -104t-169.5 -294l-63 -532h-93z" />
    <glyph glyph-name="n" unicode="n" horiz-adv-x="1032" 
d="M251 675q40 79 89.5 141.5t104.5 105.5t113 65.5t117 22.5q64 0 109.5 -25t73 -73t36 -117.5t-2.5 -158.5l-75 -636h-94l75 636q17 142 -19 218t-135 76q-56 0 -112.5 -28.5t-110 -81t-100.5 -127t-83 -167.5l-61 -526h-94l119 998h43q35 0 35 -36z" />
    <glyph glyph-name="eng" unicode="&#x14b;" horiz-adv-x="1033" 
d="M251 675q40 79 89.5 141.5t104.5 105.5t113 65.5t117 22.5q64 0 109.5 -25t73 -73t36 -117.5t-2.5 -158.5l-70 -601l-10 -83q-9 -75 -33 -135t-62 -102t-90 -64t-119 -22q-38 0 -67 5.5t-62 18.5l9 43q3 13 8.5 17.5t16.5 4.5q9 0 31 -8t64 -8q86 0 140.5 59.5
t68.5 181.5l9 84l72 609q17 142 -19 218t-135 76q-56 0 -112.5 -28.5t-110 -81t-100.5 -127t-83 -167.5l-61 -526h-94l119 998h43q35 0 35 -36z" />
    <glyph glyph-name="o" unicode="o" horiz-adv-x="1026" 
d="M441 62q87 0 158.5 45.5t122.5 121t78.5 173t27.5 200.5q0 160 -71 246t-197 86q-87 0 -158.5 -45t-122 -119.5t-78.5 -171.5t-28 -202q0 -159 70.5 -246.5t197.5 -87.5zM433 -13q-80 0 -145.5 28t-112 81t-72 128.5t-25.5 171.5q0 121 36 232t101.5 196t155.5 135.5
t198 50.5q80 0 145.5 -28t112 -81t72 -128.5t25.5 -169.5q0 -121 -36.5 -232t-101.5 -196.5t-155 -136.5t-198 -51z" />
    <glyph glyph-name="oslash" unicode="&#xf8;" horiz-adv-x="1026" 
d="M263 124q70 -67 178 -67q87 0 159.5 45t124 120.5t80 174t28.5 205.5q0 132 -52 218zM741 871q-35 34 -80 52t-101 18q-87 0 -159 -44.5t-124 -119.5t-80.5 -174t-28.5 -207q0 -69 14.5 -125t40.5 -98zM839 887q41 -53 63 -124t22 -160q0 -121 -36.5 -232t-101.5 -196.5
t-155 -136.5t-198 -51q-133 0 -223 75l-70 -96q-13 -17 -29.5 -24.5t-33.5 -7.5h-38l127 173q-42 52 -65 125t-23 164q0 121 36 232.5t101.5 196.5t155.5 135.5t198 50.5q68 0 124.5 -20t101.5 -58l61 83q12 16 21 23t29 7h50z" />
    <glyph glyph-name="oe" unicode="&#x153;" horiz-adv-x="1614" 
d="M406 60q89 0 158.5 39.5t119 110.5t78 168.5t35.5 214.5q5 76 -6.5 139.5t-40 109.5t-74.5 71t-110 25q-90 0 -163 -42t-125 -119.5t-80 -187t-28 -245.5q0 -54 12.5 -105t40.5 -91t73 -64t110 -24zM1234 942q-72 0 -133 -29t-108.5 -83t-79 -130.5t-43.5 -171.5
q174 20 283.5 49t171 63.5t83.5 73.5t22 78q0 30 -11.5 57t-35.5 47.5t-61 33t-88 12.5zM1504 185q-48 -51 -94 -88.5t-94 -62t-99.5 -36t-109.5 -11.5q-121 0 -200.5 76.5t-105.5 219.5q-30 -69 -72.5 -124t-95.5 -93t-115.5 -58.5t-134.5 -20.5q-79 0 -137 29t-95.5 77.5
t-56 112t-18.5 132.5q0 161 39 286t106.5 211t158.5 131t196 45q121 0 193 -68.5t95 -185.5q58 118 156 186t228 68q61 0 109.5 -16t82.5 -44.5t51.5 -68t17.5 -87.5q0 -56 -27 -106.5t-98.5 -92.5t-196.5 -75t-322 -54q-1 -11 -1 -23v-24q0 -172 69.5 -264.5t190.5 -92.5
q53 0 95.5 11.5t76 29.5t59.5 38t46 38t34.5 29.5t25.5 11.5q12 0 21 -10z" />
    <glyph glyph-name="p" unicode="p" horiz-adv-x="1032" 
d="M198 205q44 -79 108 -111t133 -32q63 0 117.5 25.5t99 69.5t79 102.5t58 123.5t36 133.5t12.5 133.5q0 134 -51 208.5t-149 74.5q-57 0 -114.5 -32t-110.5 -90t-100 -139.5t-83 -181.5zM249 649q39 81 87.5 147.5t102.5 114t113 73.5t120 26q65 0 114 -25t82 -70.5
t50 -110.5t17 -145q0 -77 -16 -156.5t-45.5 -154t-72 -140.5t-96.5 -115t-118.5 -77.5t-136.5 -28.5q-81 0 -149.5 36t-111.5 106l-59 -481h-92l164 1350h43q35 0 35 -36z" />
    <glyph glyph-name="thorn" unicode="&#xfe;" horiz-adv-x="1032" 
d="M198 206q21 -40 48.5 -67.5t59 -44.5t65 -24.5t68.5 -7.5q63 0 117.5 25.5t99 69.5t79 102.5t58 123.5t36 133.5t12.5 133.5q0 134 -51 208.5t-149 74.5q-57 0 -115 -32t-111 -90.5t-100 -140.5t-83 -182zM253 658q39 79 87 144t101.5 111t112 71.5t118.5 25.5
q65 0 114 -25t82 -70.5t50 -110.5t17 -145q0 -77 -16 -156.5t-45.5 -154t-72 -140.5t-96.5 -115t-118.5 -77.5t-136.5 -28.5q-81 0 -149.5 36t-112.5 107l-54 -443q-2 -17 -13.5 -28t-28.5 -11h-54l220 1807h93z" />
    <glyph glyph-name="q" unicode="q" horiz-adv-x="998" 
d="M793 917q-30 11 -62 15.5t-66 4.5q-67 0 -130 -22.5t-118.5 -62.5t-102 -95t-80.5 -120.5t-52.5 -138.5t-18.5 -149q0 -134 45.5 -208.5t142.5 -74.5q57 0 112 32t105 90t94.5 139.5t79.5 180.5zM719 328q-38 -77 -82.5 -139.5t-95 -107.5t-106 -69.5t-115.5 -24.5
q-63 0 -110 24.5t-78.5 69.5t-47.5 109t-16 144q0 87 22 170.5t62.5 158.5t96.5 138t123.5 109t144.5 72t159 26q60 0 112 -10.5t103 -36.5l-161 -1313h-54q-23 0 -31 14.5t-5 38.5z" />
    <glyph glyph-name="r" unicode="r" horiz-adv-x="657" 
d="M250 667q41 98 89.5 170t103 114t113.5 52t120 -14l-17 -89q-68 26 -129 12.5t-114.5 -64t-99 -136.5t-81.5 -204l-61 -508h-93l120 998h43q35 0 35 -36z" />
    <glyph glyph-name="s" unicode="s" horiz-adv-x="786" 
d="M697 873q-8 -14 -22 -14q-10 0 -24.5 12.5t-39 28t-61.5 28t-92 12.5q-51 0 -96.5 -17t-79 -45.5t-53 -66t-19.5 -79.5q0 -41 19 -69t50.5 -48.5t71 -35.5t81.5 -30t81.5 -33.5t71 -44.5t50.5 -63.5t19 -90.5q0 -64 -25.5 -124t-73 -106.5t-114 -74.5t-148.5 -28
q-96 0 -161.5 33.5t-112.5 87.5l24 34q11 16 27 16q10 0 25 -16t41 -35.5t67 -35.5t103 -16q60 0 108.5 19.5t83 53.5t53.5 78.5t19 94.5q0 44 -19 74t-50.5 51.5t-71 36.5t-81.5 29.5t-81.5 32t-71 42.5t-50.5 61t-19 88q0 58 25 111.5t70 95t107.5 66t136.5 24.5
q84 0 145.5 -26t109.5 -78z" />
    <glyph glyph-name="scedilla" unicode="&#x15f;" horiz-adv-x="786" 
d="M43 139q11 16 27 16q10 0 25 -16t41 -35.5t67 -35.5t103 -16q60 0 108.5 19.5t83 53.5t53.5 78.5t19 94.5q0 44 -19 74t-50.5 51.5t-71 36.5t-81.5 29.5t-81.5 32t-71 42.5t-50.5 61t-19 88q0 58 25 111.5t70 95t107.5 66t136.5 24.5q84 0 145.5 -26t109.5 -78l-23 -33
q-8 -14 -22 -14q-10 0 -24.5 12.5t-39 28t-61.5 28t-92 12.5q-51 0 -96.5 -17t-79 -45.5t-53 -66t-19.5 -79.5q0 -41 19 -69t50.5 -48.5t71 -35.5t81.5 -30t81.5 -33.5t71 -44.5t50.5 -63.5t19 -90.5q0 -62 -23.5 -119.5t-67.5 -103.5t-106 -75.5t-139 -33.5l-31 -79
q75 -15 113.5 -42t38.5 -78q0 -34 -14.5 -60.5t-39.5 -45t-60 -28t-75 -9.5q-37 0 -71 11.5t-57 30.5l14 28q6 11 17 11q5 0 12 -5.5t18.5 -11.5t28.5 -11.5t43 -5.5q51 0 79 24.5t28 66.5q0 22 -11 37t-31 25t-47.5 15.5t-60.5 10.5l49 116q-83 5 -140.5 37.5t-101.5 82.5z
" />
    <glyph glyph-name="s_t.dlig" horiz-adv-x="1481" 
d="M697 873q-8 -14 -22 -14q-10 0 -24.5 12.5t-39 28t-61.5 28t-92 12.5q-51 0 -96.5 -17t-79 -45.5t-53 -66t-19.5 -79.5q0 -41 19 -69t50.5 -48.5t71 -35.5t81.5 -30t81.5 -33.5t71 -44.5t50.5 -63.5t19 -90.5q0 -64 -25.5 -124t-73 -106.5t-114 -74.5t-148.5 -28
q-96 0 -161.5 33.5t-112.5 87.5l24 34q11 16 27 16q10 0 25 -16t41 -35.5t67 -35.5t103 -16q60 0 108.5 19.5t83 53.5t53.5 78.5t19 94.5q0 44 -19 74t-50.5 51.5t-71 36.5t-81.5 29.5t-81.5 32t-71 42.5t-50.5 61t-19 88q0 58 25 111.5t70 95t107.5 66t136.5 24.5
q71 0 129 -20q-35 61 -47.5 127t-3.5 129t37.5 119.5t76 99.5t112 68t144.5 25q73 0 126 -23.5t86 -65t45.5 -97.5t4.5 -122l-26 -202l-11 -92h286l-8 -69h-287l-68 -556q-5 -41 -8.5 -67t-5 -42.5t-2 -24.5t-0.5 -12q0 -65 30.5 -94t78.5 -29q33 0 58.5 10.5t44.5 23t31 23
t18 10.5q10 0 15 -10l18 -42q-40 -42 -97 -67.5t-114 -25.5q-82 0 -128.5 45t-47.5 138q0 6 0.5 15t2 27t4.5 46.5t9 72.5l68 559h-131q-22 0 -20 23l5 35l156 12l55 267q15 67 9 121t-31.5 91.5t-68.5 57.5t-102 20q-77 0 -137 -27.5t-101 -73.5t-61.5 -106t-17.5 -126
t30.5 -133t83.5 -127l15 -15z" />
    <glyph glyph-name="glyph121" horiz-adv-x="1481" 
d="M697 873q-8 -14 -22 -14q-10 0 -24.5 12.5t-39 28t-61.5 28t-92 12.5q-51 0 -96.5 -17t-79 -45.5t-53 -66t-19.5 -79.5q0 -41 19 -69t50.5 -48.5t71 -35.5t81.5 -30t81.5 -33.5t71 -44.5t50.5 -63.5t19 -90.5q0 -59 -21.5 -115t-62 -101t-98 -75t-128.5 -39l-32 -81
q75 -15 113.5 -42t38.5 -78q0 -34 -14.5 -60.5t-39.5 -45t-60 -28t-75 -9.5q-37 0 -71 11.5t-57 30.5l14 28q6 11 17 11q5 0 12 -5.5t18.5 -11.5t28.5 -11.5t43 -5.5q51 0 79 24.5t28 66.5q0 22 -11 37t-31 25t-47.5 15.5t-60.5 10.5l49 115q-93 1 -157 34.5t-110 86.5
l24 34q11 16 27 16q10 0 25 -16t41 -35.5t67 -35.5t103 -16q60 0 108.5 19.5t83 53.5t53.5 78.5t19 94.5q0 44 -19 74t-50.5 51.5t-71 36.5t-81.5 29.5t-81.5 32t-71 42.5t-50.5 61t-19 88q0 58 25 111.5t70 95t107.5 66t136.5 24.5q71 0 129 -20q-35 61 -47.5 127t-3.5 129
t37.5 119.5t76 99.5t112 68t144.5 25q73 0 126 -23.5t86 -65t45.5 -97.5t4.5 -122l-26 -202l-11 -92h286l-8 -69h-287l-68 -556q-5 -41 -8.5 -67t-5 -42.5t-2 -24.5t-0.5 -12q0 -65 30.5 -94t78.5 -29q33 0 58.5 10.5t44.5 23t31 23t18 10.5q10 0 15 -10l18 -42
q-40 -42 -97 -67.5t-114 -25.5q-82 0 -128.5 45t-47.5 138q0 6 0.5 15t2 27t4.5 46.5t9 72.5l68 559h-131q-22 0 -20 23l5 35l156 12l55 267q15 67 9 121t-31.5 91.5t-68.5 57.5t-102 20q-77 0 -137 -27.5t-101 -73.5t-61.5 -106t-17.5 -126t30.5 -133t83.5 -127l15 -15z
" />
    <glyph glyph-name="germandbls" unicode="&#xdf;" horiz-adv-x="1089" 
d="M254 963q18 95 61 180.5t105 149.5t139 101.5t163 37.5q73 0 128.5 -22.5t92 -59t55 -82.5t18.5 -92q0 -70 -25.5 -120t-64.5 -88t-83.5 -68t-83.5 -59t-64.5 -61.5t-25.5 -75.5q0 -41 23 -66.5t57.5 -45t75 -38.5t75 -46.5t57.5 -69.5t23 -108q0 -76 -27 -139.5
t-74.5 -109.5t-113 -71.5t-142.5 -25.5q-47 0 -85.5 9t-71 24.5t-60 38t-51.5 49.5l26 33q10 15 29 15q12 0 27.5 -16t40.5 -34.5t63.5 -34.5t95.5 -16q58 0 105.5 20t80.5 54.5t51 81t18 99.5q0 56 -23.5 91t-59.5 59t-77 41.5t-77 40t-59.5 55.5t-23.5 86q0 56 26.5 97
t66 74.5t86 64t86 66t66 80.5t26.5 108q0 29 -11 63t-37 62.5t-68 47.5t-104 19q-65 0 -126 -33t-111 -92t-84.5 -139.5t-46.5 -174.5l-112 -902l-42 -230q-12 -41 -49 -41h-34l140 1142l-131 9q-28 3 -24 24l3 38h162z" />
    <glyph glyph-name="longs" unicode="&#x17f;" horiz-adv-x="492" 
d="M267 1090q11 85 39.5 149t71 107t97.5 64.5t118 21.5q29 0 57 -5.5t49 -15.5l-8 -46q-2 -8 -9 -9.5t-19 0t-28 4t-37 2.5q-45 0 -84 -15t-70 -47.5t-52.5 -85t-30.5 -127.5l-132 -1066l-42 -230q-12 -41 -49 -41h-34l139 1142l-130 9q-28 3 -24 24l3 38h160z" />
    <glyph glyph-name="t" unicode="t" horiz-adv-x="682" 
d="M153 167q0 6 0.5 15t2 27t4.5 46.5t9 72.5l68 565h-131q-10 0 -16 6t-4 17l5 37l157 12l66 356q2 9 9 16t17 7h46l-47 -380h288l-8 -71h-288l-69 -562q-5 -41 -8.5 -67t-5 -42.5t-2 -24.5t-0.5 -12q0 -65 30.5 -94t78.5 -29q33 0 58.5 10.5t44.5 23t31 23t18 10.5
q10 0 15 -10l18 -42q-40 -42 -97 -67.5t-114 -25.5q-82 0 -128.5 45t-47.5 138z" />
    <glyph glyph-name="tcaron" unicode="&#x165;" horiz-adv-x="682" 
d="M664 1457q20 0 20 -21q0 -10 -4.5 -26.5t-15 -46t-28.5 -73.5l-45 -110q-7 -14 -15.5 -19t-23.5 -5h-23l85 301h50zM153 167q0 6 0.5 15t2 27t4.5 46.5t9 72.5l68 565h-131q-10 0 -16 6t-4 17l5 37l157 12l66 356q2 9 9 16t17 7h46l-47 -380h288l-8 -71h-288l-69 -562
q-5 -41 -8.5 -67t-5 -42.5t-2 -24.5t-0.5 -12q0 -65 30.5 -94t78.5 -29q33 0 58.5 10.5t44.5 23t31 23t18 10.5q10 0 15 -10l18 -42q-40 -42 -97 -67.5t-114 -25.5q-82 0 -128.5 45t-47.5 138z" />
    <glyph glyph-name="tbar" unicode="&#x167;" horiz-adv-x="694" 
d="M163 167q0 6 0.5 15t2 27t4.5 46.5t9 72.5l36 299h-141q-11 0 -18 6t-5 19l5 38h166l25 203h-131q-10 0 -16 6t-4 17l5 37l157 12l66 356q2 9 9 16t17 7h46l-47 -380h288l-8 -71h-288l-25 -203h270l-9 -63h-269l-36 -296q-5 -41 -8.5 -67t-5 -42.5t-2 -24.5t-0.5 -12
q0 -65 30.5 -94t78.5 -29q33 0 58.5 10.5t44.5 23t31 23t18 10.5q10 0 15 -10l18 -42q-40 -42 -97 -67.5t-114 -25.5q-82 0 -128.5 45t-47.5 138z" />
    <glyph glyph-name="u" unicode="u" horiz-adv-x="1032" 
d="M925 995l-120 -995h-44q-19 0 -27.5 10t-8.5 27l30 283q-41 -79 -90 -141t-103.5 -104.5t-113 -65t-116.5 -22.5q-128 0 -183 98.5t-33 276.5l75 633h94l-75 -633q-17 -143 19 -219.5t135 -76.5q55 0 111.5 28t109.5 80.5t100 126t83 165.5l63 529h94z" />
    <glyph glyph-name="uogonek" unicode="&#x173;" horiz-adv-x="1032" 
d="M794 0q-21 -12 -46.5 -30t-47 -42.5t-36 -54t-14.5 -63.5q0 -41 25.5 -64t65.5 -23q25 0 43 5.5t30.5 11.5t20 11.5t12.5 5.5q9 0 12 -8l11 -34q-29 -24 -70 -38.5t-84 -14.5q-66 0 -104 33t-38 91q0 36 14 68t37 60t52.5 51.5t59.5 41.5q-12 10 -12 30l30 283
q-41 -79 -90 -141t-103.5 -104.5t-113 -65t-116.5 -22.5q-128 0 -183 98.5t-33 276.5l75 633h94l-75 -633q-17 -143 19 -219.5t135 -76.5q55 0 111.5 28t109.5 80.5t100 126t83 165.5l63 529h94l-120 -995h-11z" />
    <glyph glyph-name="v" unicode="v" horiz-adv-x="927" 
d="M940 995l-510 -995h-78l-267 995h73q14 0 21.5 -7.5t9.5 -16.5l203 -785q4 -23 6.5 -45.5t4.5 -45.5q7 23 15 45t19 46l397 785q5 11 14 17.5t21 6.5h71z" />
    <glyph glyph-name="w" unicode="w" horiz-adv-x="1410" 
d="M1410 995l-427 -995h-68q-16 0 -19 21l-152 808q-5 24 -6 47q-4 -12 -8 -23.5t-9 -23.5l-353 -808q-8 -21 -24 -21h-65l-184 995h67q26 0 31 -24l133 -785q5 -44 6 -85l16 42t17 43l342 792q7 22 29 22h37q22 0 24 -22l147 -792q4 -22 6.5 -43t4.5 -42q7 20 14 41t15 44
l326 785q5 11 14 17.5t20 6.5h66z" />
    <glyph glyph-name="x" unicode="x" horiz-adv-x="872" 
d="M489 531l279 -531h-80q-24 0 -33 22l-234 457q-8 -16 -16 -28l-334 -431q-7 -8 -14.5 -14t-19.5 -6h-80l414 533l-251 462h80q13 0 19 -3.5t11 -11.5l209 -398q7 15 16 27l288 369q10 17 27 17h84z" />
    <glyph glyph-name="y" unicode="y" horiz-adv-x="929" 
d="M944 995l-691 -1319q-14 -28 -41 -28h-67l210 390l-267 957h74q14 0 21 -6.5t9 -17.5l210 -774q4 -15 5.5 -30t3.5 -30q6 15 13 30l14 30l401 777q5 11 14 16t18 5h73z" />
    <glyph glyph-name="z" unicode="z" horiz-adv-x="827" 
d="M808 995l-5 -40q-1 -19 -19 -38l-671 -842h559l-8 -75h-674l4 38q0 8 5 18t13 19l673 845h-553l10 75h666z" />
    <glyph glyph-name="ordfeminine" unicode="&#xaa;" horiz-adv-x="683" 
d="M532 1115q-161 -6 -233.5 -43t-72.5 -104q0 -46 28 -66.5t66 -20.5q62 0 107.5 27t88.5 67zM233 1337q50 47 102.5 69.5t114.5 22.5q48 0 81.5 -17.5t53.5 -47.5t27 -68.5t1 -80.5l-47 -376h-31q-11 0 -14.5 3.5t-7.5 14.5v69q-52 -47 -101.5 -71.5t-116.5 -24.5
q-28 0 -53 8t-43.5 23.5t-29.5 40t-11 57.5q0 42 20.5 78t66 63.5t118 44t175.5 18.5l6 52q9 77 -17.5 116.5t-91.5 39.5q-39 0 -66.5 -11t-48 -24t-34.5 -24t-24 -11q-8 0 -12.5 4t-7.5 9z" />
    <glyph glyph-name="ordmasculine" unicode="&#xba;" horiz-adv-x="752" 
d="M477 1429q55 0 97.5 -18t72 -51.5t45 -80t15.5 -103.5q0 -79 -21.5 -143.5t-61 -110t-95.5 -70.5t-125 -25q-56 0 -99 18t-72.5 51t-45 79.5t-15.5 103.5q0 79 21.5 143.5t61 110.5t96 71t126.5 25zM411 883q55 0 97 21t70 59.5t42.5 92.5t14.5 120q0 89 -41 142.5
t-123 53.5q-58 0 -100.5 -21.5t-70.5 -60.5t-41.5 -93t-13.5 -119q0 -89 41 -142t125 -53z" />
    <glyph glyph-name="ordfeminine.case" horiz-adv-x="752" 
d="M536 1056l-58 238q-3 11 -4.5 21.5t-3.5 21.5q-4 -11 -8.5 -21.5t-9.5 -21.5l-117 -238h201zM659 840h-54q-17 0 -20 15l-36 149h-240l-73 -149q-3 -6 -9 -10.5t-14 -4.5h-55l291 575h62z" />
    <glyph glyph-name="a.superior" horiz-adv-x="489" 
d="M162 1344q43 39 88 59t99 20q78 0 111.5 -51t22.5 -136l-1 -9h-1l-38 -316h-29q-11 0 -15.5 3.5t-6.5 14.5l-2 54q-42 -38 -82 -59t-94 -21q-48 0 -81 27.5t-33 84.5q0 36 16.5 67t53.5 54t96.5 37.5t144.5 16.5l4 37l1 9q9 64 -12 98t-69 34q-32 0 -54.5 -9t-39.5 -20.5
t-29 -20.5t-21 -9q-12 0 -19 13zM406 1147q-128 -5 -184 -36t-56 -87q0 -38 22 -55.5t51 -17.5q48 0 83 21.5t69 55.5z" />
    <glyph glyph-name="b.superior" horiz-adv-x="551" 
d="M210 1026q20 -38 47 -53t63 -15q82 0 128.5 70t46.5 191q0 75 -28 112t-82 37q-40 0 -75.5 -22.5t-68.5 -63.5zM248 1336q35 40 76.5 63.5t90.5 23.5q71 0 110.5 -52t39.5 -150q0 -68 -17 -126t-48 -100t-75 -66t-98 -24q-47 0 -77 20t-50 58l-9 -56q-6 -16 -20 -16h-44
l91 735h68z" />
    <glyph glyph-name="c.superior" horiz-adv-x="476" 
d="M496 1336q-4 -4 -7.5 -6t-9.5 -2t-13 6.5t-19 14t-30 14t-45 6.5q-82 0 -130 -66t-48 -181q0 -78 32.5 -121t90.5 -43q31 0 52.5 8t36.5 18t24.5 18t16.5 8q8 0 12 -7l16 -24q-32 -36 -78.5 -55t-97.5 -19q-39 0 -71 14.5t-55 42.5t-35.5 68t-12.5 90q0 66 17 121.5
t49.5 96t78.5 63t105 22.5q48 0 82.5 -16.5t58.5 -45.5z" />
    <glyph glyph-name="d.superior" horiz-adv-x="551" 
d="M478 1300q-18 38 -45 54t-63 16q-41 0 -74 -18t-55.5 -52t-34.5 -82t-12 -108q0 -151 112 -151q39 0 74.5 22t66.5 63zM590 1646l-91 -735h-40q-16 0 -16 15l3 71q-35 -42 -78 -67t-94 -25q-71 0 -110.5 51.5t-39.5 150.5q0 68 17 126t48 100t75 66t98 24q44 0 74 -16.5
t50 -48.5l35 288h69z" />
    <glyph glyph-name="e.superior" horiz-adv-x="517" 
d="M477 1216q8 72 -21.5 114t-87.5 42q-65 0 -108 -40.5t-59 -115.5h276zM501 979q-33 -35 -85 -54.5t-103 -19.5q-86 0 -137.5 58t-51.5 164q0 64 18 118.5t50.5 94t78 61.5t101.5 22q74 0 120 -49.5t46 -138.5q0 -41 -6 -51.5t-16 -10.5h-322q-1 -11 -1.5 -22t-0.5 -22
q0 -83 35 -126.5t98 -43.5q32 0 56.5 8t42.5 17.5t29.5 17.5t18.5 8q8 0 12 -7z" />
    <glyph glyph-name="f.superior" horiz-adv-x="347" 
d="M219 1458q11 88 58 133t117 45q15 0 29.5 -2.5t26.5 -7.5l-7 -35q-2 -11 -12.5 -10t-34.5 1q-42 0 -72 -28t-39 -98l-6 -54h139l-6 -50h-137l-55 -441h-68l54 440l-56 5q-18 3 -17 18l4 28h75z" />
    <glyph glyph-name="g.superior" horiz-adv-x="513" 
d="M307 1145q60 0 92.5 36t32.5 96q0 43 -24.5 70t-72.5 27q-57 0 -90.5 -36t-33.5 -95q0 -43 24 -70.5t72 -27.5zM433 889q0 28 -21.5 40t-54.5 16t-71.5 5t-71.5 7q-34 -16 -55.5 -39.5t-21.5 -57.5q0 -36 33 -61t99 -25q34 0 63.5 8.5t52 24t35.5 36.5t13 46zM566 1394
l-3 -25q-3 -14 -20 -18l-62 -6q6 -14 9.5 -30t3.5 -34q0 -41 -14.5 -74.5t-40.5 -57t-61 -36.5t-76 -13q-18 0 -34 2.5t-30 7.5q-20 -12 -31 -27t-11 -31q0 -24 22.5 -32.5t55.5 -11.5t72.5 -4t72.5 -9.5t55.5 -28.5t22.5 -60q0 -35 -17 -67.5t-48 -57.5t-74.5 -40
t-96.5 -15q-47 0 -81.5 10t-57.5 27t-34.5 39.5t-11.5 46.5q0 43 26.5 73t71.5 47q-18 8 -29 22.5t-11 37.5q0 26 19 53t53 44q-28 18 -43 47.5t-15 67.5q0 41 14.5 74.5t40.5 57.5t61.5 37t76.5 13q60 0 100 -29h125z" />
    <glyph glyph-name="h.superior" horiz-adv-x="553" 
d="M249 1340q35 38 76 60.5t90 22.5q76 0 108.5 -52t22.5 -139l-39 -321h-68l40 321q8 64 -14 100t-76 36q-40 0 -77 -21.5t-70 -59.5l-46 -376h-69l91 735h68z" />
    <glyph glyph-name="i.superior" horiz-adv-x="246" 
d="M256 1405l-61 -494h-68l60 494h69zM296 1586q0 -24 -18.5 -41.5t-41.5 -17.5q-19 0 -31.5 14t-12.5 34q0 25 17.5 42.5t40.5 17.5q20 0 33 -14t13 -35z" />
    <glyph glyph-name="j.superior" horiz-adv-x="245" 
d="M255 1405l-67 -545q-3 -28 -13 -52.5t-27.5 -42.5t-42 -28t-57.5 -10q-28 0 -48 10l7 36q4 10 10.5 8t23.5 -2q37 0 55.5 20t23.5 61l67 545h68zM296 1586q0 -24 -18 -41.5t-41 -17.5q-20 0 -32.5 14t-12.5 34q0 25 17.5 42.5t40.5 17.5q20 0 33 -14t13 -35z" />
    <glyph glyph-name="k.superior" horiz-adv-x="484" 
d="M350 1211q-12 -15 -28 -23q15 -8 24 -26l164 -251h-61q-9 0 -16 3t-10 11l-141 217q-5 11 -12 13.5t-21 2.5h-23l-30 -247h-69l91 735h68l-54 -440h21q8 0 15 2t15 10l183 182q10 15 31 15h61z" />
    <glyph glyph-name="l.superior" horiz-adv-x="247" 
d="M285 1646l-90 -735h-68l91 735h67z" />
    <glyph glyph-name="m.superior" horiz-adv-x="794" 
d="M240 1334q32 40 68.5 64.5t81.5 24.5q48 0 74.5 -29.5t31.5 -80.5q13 29 31.5 49.5t40 34t45 20t46.5 6.5q72 0 106 -49.5t23 -141.5l-40 -321h-68l39 321q8 66 -13.5 101t-69.5 35q-22 0 -42.5 -8.5t-37.5 -25.5t-29.5 -42.5t-16.5 -59.5l-39 -321h-68l40 321
q8 65 -11.5 100.5t-67.5 35.5q-32 0 -63 -20.5t-59 -56.5l-46 -380h-68l61 504h40q9 0 12 -4t4 -12z" />
    <glyph glyph-name="uni207F" unicode="&#x207f;" horiz-adv-x="580" 
d="M239 1330q40 42 87 67.5t104 25.5q42 0 71.5 -13.5t47 -38.5t23.5 -60.5t1 -78.5l-39 -321h-68l39 321q8 65 -16 100.5t-85 35.5q-45 0 -86 -22.5t-77 -61.5l-46 -373h-68l62 504h35q15 0 18 -18z" />
    <glyph glyph-name="o.superior" horiz-adv-x="554" 
d="M377 1423q45 0 80.5 -15.5t60 -44t37 -68.5t12.5 -89q0 -68 -18 -123.5t-51.5 -95t-80 -61t-103.5 -21.5q-45 0 -80.5 15.5t-60 43.5t-37 68t-12.5 89q0 68 18.5 123.5t51.5 95.5t79.5 61.5t103.5 21.5zM320 958q85 0 131 66t46 184q0 72 -31 116.5t-95 44.5
q-85 0 -131 -66.5t-46 -183.5q0 -74 31.5 -117.5t94.5 -43.5z" />
    <glyph glyph-name="p.superior" horiz-adv-x="551" 
d="M210 1026q20 -38 47 -53t62 -15q83 0 129.5 70t46.5 191q0 149 -109 149q-42 0 -77.5 -22.5t-67.5 -63.5zM243 1330q35 42 78 67.5t94 25.5q72 0 111.5 -51.5t39.5 -149.5q0 -68 -17 -126t-48.5 -100.5t-75 -66.5t-97.5 -24q-45 0 -74.5 16.5t-50.5 48.5l-28 -233h-69
l83 678h40q17 0 17 -15z" />
    <glyph glyph-name="q.superior" horiz-adv-x="550" 
d="M479 1300q-18 37 -45.5 53.5t-63.5 16.5q-42 0 -75 -18.5t-55.5 -52.5t-34 -82t-11.5 -106q0 -77 28.5 -114.5t81.5 -37.5q41 0 76.5 22.5t67.5 64.5zM561 1415l-83 -678h-68l31 254q-35 -39 -76.5 -62.5t-90.5 -23.5q-71 0 -110.5 51.5t-39.5 150.5q0 68 17 126t48 100
t75 66t98 24q47 0 77.5 -18.5t50.5 -53.5l11 49q4 15 20 15h40z" />
    <glyph glyph-name="r.superior" horiz-adv-x="360" 
d="M239 1304q29 57 66 88t88 31q31 0 51 -13l-11 -50q-6 -10 -14 -10q-6 0 -17.5 3.5t-28.5 3.5q-48 0 -80 -32.5t-58 -92.5l-39 -321h-68l62 504h38q11 0 14.5 -4.5t4.5 -15.5z" />
    <glyph glyph-name="s.superior" horiz-adv-x="430" 
d="M441 1342q-6 -9 -16 -9q-6 0 -13.5 6t-19.5 13t-29.5 13t-42.5 6q-49 0 -79 -27t-30 -65q0 -25 16.5 -40t41 -25.5t53.5 -20t53.5 -23.5t41 -36t16.5 -57q0 -36 -13.5 -67.5t-38 -55.5t-60.5 -37.5t-81 -13.5q-48 0 -84 17t-61 44l20 26q7 11 19 11q8 0 16 -7.5t20.5 -17
t31.5 -17t48 -7.5q28 0 50 9t37 23.5t22.5 34t7.5 40.5q0 27 -16.5 42.5t-41 26t-53.5 20t-53.5 23t-41 35.5t-16.5 59q0 31 12.5 60t36 50.5t57 34.5t74.5 13q86 0 135 -57z" />
    <glyph glyph-name="t.superior" horiz-adv-x="374" 
d="M232 1030q-5 -37 9 -54t38 -17q14 0 25 4.5t19 10t14 10t10 4.5q5 0 9 -7l15 -31q-23 -22 -53 -34.5t-61 -12.5q-52 0 -77 31t-17 92l40 326h-60q-6 0 -10 3.5t-3 11.5l3 28l78 8l37 168q3 14 18 14h34l-22 -183h138l-6 -50h-139z" />
    <glyph glyph-name="u.superior" horiz-adv-x="553" 
d="M563 1415l-62 -504h-40q-15 0 -16 15l3 66q-36 -40 -78.5 -64.5t-93.5 -24.5q-77 0 -110 51.5t-22 138.5l39 322h69l-40 -322q-8 -64 14 -100t76 -36q39 0 76.5 22t69.5 59l46 377h69z" />
    <glyph glyph-name="v.superior" horiz-adv-x="479" 
d="M561 1415l-253 -504h-62l-129 504h54q18 0 20 -16l89 -361q4 -30 6 -57q5 14 10.5 28t11.5 30l177 360q7 16 23 16h53z" />
    <glyph glyph-name="w.superior" horiz-adv-x="750" 
d="M135 1415h55q19 0 19 -18l57 -358l4 -53l10 26t11 27l152 362q6 16 21 16h27q16 0 18 -17l63 -361q2 -14 3.5 -27t2.5 -26q4 13 8.5 26t9.5 27l146 358q2 8 8.5 13t14.5 5h52l-216 -504h-51q-10 0 -13 14l-66 375q-2 9 -2.5 18.5t-1.5 18.5q-3 -9 -6 -18.5t-7 -18.5
l-160 -375q-6 -14 -18 -14h-51z" />
    <glyph glyph-name="x.superior" horiz-adv-x="487" 
d="M359 1173l134 -262h-66q-8 0 -12.5 5t-7.5 10l-101 210q-5 -14 -10 -21l-141 -189l-10 -10t-13 -5h-61l197 258l-129 246h66q8 0 12 -3.5t6 -8.5l99 -200q2 5 4.5 10.5t6.5 11.5l132 177q10 13 21 13h62z" />
    <glyph glyph-name="y.superior" horiz-adv-x="481" 
d="M564 1415l-341 -656q-6 -11 -12.5 -16.5t-17.5 -5.5h-51l110 198l-136 480h59q9 0 13.5 -5t6.5 -11l93 -354q4 -18 6 -38q4 10 8 19.5t9 19.5l178 353q4 7 9.5 11.5t13.5 4.5h52z" />
    <glyph glyph-name="z.superior" horiz-adv-x="442" 
d="M497 1415l-4 -30q-2 -14 -14 -28l-314 -392h267l-7 -54h-346l4 28q0 11 14 27l314 395h-262l7 54h341z" />
    <glyph glyph-name="grave" unicode="`" 
d="M424 1431q22 0 32.5 -7t18.5 -25l117 -238h-50q-11 0 -18.5 3.5t-12.5 13.5l-172 253h85z" />
    <glyph glyph-name="grave.case" 
d="M402 1841q23 0 34 -3.5t20 -18.5l189 -277h-61q-11 0 -18.5 2t-14.5 10l-247 287h98z" />
    <glyph glyph-name="acute" unicode="&#xb4;" 
d="M736 1431l-228 -253q-8 -10 -16 -13.5t-19 -3.5h-53l171 238q12 18 24 25t34 7h87z" />
    <glyph glyph-name="acute.case" 
d="M880 1841l-333 -287q-10 -8 -18 -10t-20 -2h-60l270 277q13 14 24.5 18t33.5 4h103z" />
    <glyph glyph-name="circumflex" unicode="&#x2c6;" 
d="M739 1169h-60q-6 0 -13 3t-12 11l-123 166l-9 12q-3 -4 -11 -12l-161 -166q-12 -14 -28 -14h-62l228 246h78z" />
    <glyph glyph-name="circumflex.case" 
d="M797 1542h-66q-7 0 -16.5 3t-17.5 14l-126 186q-2 3 -3 5.5t-2 5.5l-8 -11l-168 -186q-11 -11 -21 -14t-17 -3h-64l247 267h76z" />
    <glyph glyph-name="caron" unicode="&#x2c7;" 
d="M766 1415l-227 -246h-79l-172 246h61q17 0 24 -11l125 -168q2 -3 4.5 -6t4.5 -7q2 4 5 7l6 6l163 168q11 11 25 11h60z" />
    <glyph glyph-name="caron.case" 
d="M827 1809l-247 -267h-78l-185 267h65q7 0 16.5 -2t15.5 -13l127 -196q2 -3 3 -5.5t3 -5.5q2 3 4 5.5t4 5.5l170 196q10 11 19.5 13t17.5 2h65z" />
    <glyph glyph-name="uni0315" unicode="&#x315;" 
d="M595 1457q11 0 15.5 -6t4.5 -14q0 -10 -4.5 -26.5t-15 -45.5t-28.5 -73.5t-46 -111.5q-7 -14 -15.5 -19.5t-23.5 -5.5h-33l85 302h61z" />
    <glyph glyph-name="tilde" unicode="&#x2dc;" 
d="M617 1280q40 0 63.5 27.5t29.5 74.5h55q-4 -36 -16.5 -67.5t-32 -54.5t-45.5 -36t-58 -13q-31 0 -56 16.5t-47.5 36t-44.5 36t-46 16.5q-38 0 -62 -28.5t-30 -73.5h-56q4 36 17 67.5t32.5 54.5t46 36t57.5 13t56.5 -16.5t47.5 -36t43.5 -36t45.5 -16.5z" />
    <glyph glyph-name="tilde.case" 
d="M667 1616q22 0 40.5 9t32 24t22 34.5t11.5 40.5h54q-4 -35 -16.5 -66.5t-33 -55.5t-48 -38t-61.5 -14q-35 0 -63.5 17.5t-54 38t-50 38t-50.5 17.5q-22 0 -40 -9t-32 -24t-22.5 -34.5t-11.5 -40.5h-56q4 34 17 65.5t34 55.5t48.5 38.5t60.5 14.5q36 0 65 -17.5t54.5 -38
t49.5 -38t50 -17.5z" />
    <glyph glyph-name="dieresis.case" 
d="M456 1662q0 -17 -7 -31.5t-18.5 -25.5t-26.5 -17.5t-31 -6.5q-33 0 -57.5 24t-24.5 57q0 17 6.5 32t18 26.5t26 18t31.5 6.5q16 0 31 -6.5t26.5 -18t18.5 -26.5t7 -32zM813 1662q0 -17 -7 -31.5t-18 -25.5t-26 -17.5t-31 -6.5q-34 0 -58 24t-24 57q0 34 24 58.5t58 24.5
q16 0 31 -6.5t26 -18t18 -26.5t7 -32z" />
    <glyph glyph-name="macron" unicode="&#xaf;" 
d="M265 1317h502l-8 -65h-501z" />
    <glyph glyph-name="macron" unicode="&#x2c9;" 
d="M265 1317h502l-8 -65h-501z" />
    <glyph glyph-name="macron.case" 
d="M324 1672h464l-6 -60h-465z" />
    <glyph glyph-name="breve" unicode="&#x2d8;" 
d="M500 1168q-60 0 -100 19.5t-62.5 53.5t-29.5 79t-1 95h64q-5 -37 -0.5 -70t20 -58t44 -39.5t72.5 -14.5t75.5 14.5t52.5 39.5t33 58t16 70h64q-6 -50 -22.5 -95t-46.5 -79t-74.5 -53.5t-104.5 -19.5z" />
    <glyph glyph-name="breve.case" 
d="M542 1543q-122 0 -174.5 62t-38.5 190h69q-10 -91 23 -141t128 -50q48 0 82 13t57 37.5t35.5 60t17.5 80.5h70q-14 -125 -81 -188.5t-188 -63.5z" />
    <glyph glyph-name="ring" unicode="&#x2da;" 
d="M356 1302q4 36 20 66t40 51.5t54 34t63 12.5q32 0 59.5 -12.5t47 -34t29 -51.5t5.5 -66q-5 -36 -21 -65.5t-40 -51.5t-54.5 -34t-62.5 -12q-33 0 -60 12t-46 34t-28.5 51.5t-5.5 65.5zM409 1302q-5 -50 20 -82t73 -32q46 0 79 32t39 82t-20.5 82t-72.5 32q-47 0 -79 -32
t-39 -82z" />
    <glyph glyph-name="ring.case" 
d="M403 1685q4 34 20 63.5t39 50.5t52.5 33t60.5 12q32 0 58.5 -12t45.5 -33t28 -50.5t5 -63.5q-4 -35 -20 -64t-39.5 -50t-53 -33t-60.5 -12t-57.5 12t-45.5 33t-28 50t-5 64zM453 1685q-6 -50 20 -82t73 -32q22 0 42 8.5t36 23.5t26 36t13 46q5 50 -20.5 82t-71.5 32
q-47 0 -80 -32t-38 -82z" />
    <glyph glyph-name="glyph188" 
d="M354 1277q4 36 19.5 66t39.5 51.5t54.5 34t62.5 12.5q33 0 60.5 -12.5t46.5 -34t28 -51.5t5 -66t-20 -65.5t-40 -51.5t-54.5 -34t-63.5 -12q-32 0 -59 12t-46 34t-28 51.5t-5 65.5zM407 1277q-6 -50 20 -82t72 -32t79 32t39 82t-20 82t-72 32q-48 0 -80.5 -32t-37.5 -82z
M847 1794l-227 -253q-8 -10 -16.5 -13.5t-19.5 -3.5h-52l171 238q12 18 23.5 25t33.5 7h87z" />
    <glyph glyph-name="glyph189" 
d="M402 1638q4 34 19 62.5t37.5 49.5t51 32.5t59.5 11.5t57 -11.5t44 -32.5t27 -49.5t5 -62.5q-4 -33 -19 -61.5t-37.5 -49t-51 -32t-59.5 -11.5t-57 11.5t-44 32t-27 49t-5 61.5zM448 1638q-5 -48 20 -80t71 -32q23 0 43 8.5t35.5 23.5t25.5 35.5t13 44.5q5 50 -20.5 81.5
t-70.5 31.5q-46 0 -78.5 -31.5t-38.5 -81.5zM910 2082l-273 -214q-9 -8 -17.5 -10t-19.5 -2h-60l207 204q13 14 24.5 18t33.5 4h105z" />
    <glyph glyph-name="hungarumlaut" unicode="&#x2dd;" 
d="M629 1431l-210 -253q-8 -10 -17 -13.5t-20 -3.5h-38l167 238q11 18 23 25t34 7h61zM879 1431l-241 -253q-8 -10 -16.5 -13.5t-19.5 -3.5h-43l194 238q7 9 13 15t12 9.5t14 5.5t19 2h68z" />
    <glyph glyph-name="hungarumlaut.case" 
d="M652 1810l-217 -251q-16 -17 -36 -17h-42l174 236q11 17 25.5 24.5t36.5 7.5h59zM967 1810l-247 -251q-18 -17 -38 -17h-48l200 236q14 17 28 24.5t36 7.5h69z" />
    <glyph glyph-name="dotaccent" unicode="&#x2d9;" 
d="M605 1338q0 -18 -7.5 -33.5t-19.5 -27.5t-27.5 -19t-31.5 -7q-17 0 -32 7t-26 19t-18 27.5t-7 33.5t7 34t18.5 28.5t26.5 19.5t32 7q16 0 31.5 -7t27.5 -19t19 -28.5t7 -34.5z" />
    <glyph glyph-name="dotaccent.case" 
d="M645 1679q0 -18 -7.5 -33.5t-19.5 -27.5t-27.5 -19t-31.5 -7q-17 0 -32 7t-26 19t-18 27.5t-7 33.5t7 34t18.5 28.5t26.5 19.5t32 7q16 0 31.5 -7t27.5 -19.5t19 -28.5t7 -34z" />
    <glyph glyph-name="cedilla" unicode="&#xb8;" 
d="M362 -94q75 -15 113.5 -42t38.5 -78q0 -34 -14.5 -60.5t-39.5 -45t-60 -28t-75 -9.5q-37 0 -71 11.5t-57 30.5l14 28q6 11 17 11q5 0 12 -5.5t18.5 -11.5t28.5 -11.5t43 -5.5q51 0 79 24.5t28 66.5q0 22 -11 37t-31 25t-47.5 15.5t-60.5 10.5l61 143h56z" />
    <glyph glyph-name="ogonek" unicode="&#x2db;" 
d="M472 -243q9 0 12 -8l11 -34q-29 -24 -70 -38.5t-84 -14.5q-66 0 -104 33t-38 91q0 37 15 70.5t40 62t55.5 52.5t62.5 42l47 -13q-21 -12 -46.5 -30t-47 -42.5t-36 -54t-14.5 -63.5q0 -41 25.5 -64t65.5 -23q25 0 43 5.5t30.5 11.5t20 11.5t12.5 5.5z" />
    <glyph glyph-name="glyph196" 
d="M378 -103q12 0 16 -6t4 -14q0 -11 -4.5 -28.5t-14 -46t-25.5 -69.5t-39 -98q-7 -14 -15.5 -19t-23.5 -5h-32l78 286h56z" />
    <glyph glyph-name="glyph197" 
d="M535 1146h-84l103 281h56z" />
    <glyph glyph-name="Gamma" unicode="&#x393;" horiz-adv-x="1016" 
d="M1070 1335h-683l-164 -1335h-100l174 1415h782z" />
    <glyph glyph-name="Delta" unicode="&#x394;" horiz-adv-x="1225" 
d="M715 1233q-5 16 -8.5 35t-7.5 40q-8 -22 -16.5 -40.5t-16.5 -35.5l-571 -1152h907zM1125 0h-1174l717 1415h89z" />
    <glyph glyph-name="Theta" unicode="&#x398;" horiz-adv-x="1473" 
d="M477 763h547l-11 -82h-545zM1381 816q0 -187 -54.5 -340t-151.5 -262t-229 -169t-286 -60q-124 0 -224 44.5t-170.5 125.5t-108.5 194t-38 250q0 186 55 339.5t151.5 263t228 169.5t284.5 60q125 0 225.5 -44.5t171 -125.5t108.5 -194.5t38 -250.5zM1278 814
q0 123 -31.5 221.5t-90.5 168t-142.5 107t-186.5 37.5q-130 0 -241 -52t-192.5 -149t-127.5 -235t-46 -310q0 -123 32 -221.5t91 -167.5t142 -106.5t186 -37.5q132 0 243 51.5t192 148.5t126.5 234.5t45.5 310.5z" />
    <glyph glyph-name="Lambda" unicode="&#x39b;" horiz-adv-x="1215" 
d="M1116 0h-79q-14 0 -22 7.5t-11 18.5l-294 1181q-5 20 -9.5 43.5t-8.5 49.5q-8 -26 -18 -49.5t-21 -43.5l-583 -1181q-5 -11 -15.5 -18.5t-23.5 -7.5h-79l711 1415h89z" />
    <glyph glyph-name="Xi" unicode="&#x39e;" horiz-adv-x="1135" 
d="M1152 1415l-10 -85h-962l10 85h962zM988 85l-10 -85h-961l10 85h961zM337 766h503l-11 -87h-503z" />
    <glyph glyph-name="Pi" unicode="&#x3a0;" horiz-adv-x="1403" 
d="M1132 0h-100l164 1335h-809l-164 -1335h-100l174 1415h1009z" />
    <glyph glyph-name="Sigma" unicode="&#x3a3;" horiz-adv-x="1115" 
d="M374 1335q-33 0 -60 2.5t-54 8.5q26 -20 46.5 -42t37.5 -52l284 -488q11 -19 16 -29t3 -20q-2 -11 -8.5 -23t-23.5 -31l-423 -509q-24 -28 -44.5 -47t-41.5 -33q29 4 54 6t49 2h757l-9 -80h-961l4 37q2 11 9 23t15 21l540 624l-391 636q-11 15 -9 32l5 42h962l-10 -80
h-747z" />
    <glyph glyph-name="Phi" unicode="&#x3a6;" horiz-adv-x="1501" 
d="M743 155q131 1 240.5 51t188.5 135.5t123 198.5t44 240q0 99 -30.5 188t-89.5 156.5t-144.5 107t-194.5 40.5zM785 1272q-131 -1 -240.5 -51.5t-188.5 -136t-123 -198.5t-44 -239q0 -100 31 -189t89.5 -156t144 -106.5t194.5 -40.5zM889 1349q132 -1 234 -47
t171.5 -123.5t105.5 -179t36 -214.5q0 -144 -50 -272.5t-142 -225t-221.5 -153t-288.5 -57.5l-24 -194h-95l24 194q-133 1 -235 46.5t-171.5 123t-105 179.5t-35.5 215q0 96 23 186t66.5 168.5t106 143.5t140.5 111.5t170 72t196 26.5l23 184h95z" />
    <glyph glyph-name="Psi" unicode="&#x3a8;" horiz-adv-x="1470" 
d="M1462 1415l-62 -500q-16 -128 -66 -230t-132 -175t-194.5 -113t-253.5 -43l-43 -354h-101l44 354q-140 3 -242.5 43.5t-166.5 113t-89 175t-10 229.5l62 500h65q17 0 24.5 -11t5.5 -26l-57 -463q-14 -112 5 -200t71 -149.5t137 -95t204 -36.5l121 981h100l-120 -981
q120 3 213.5 36.5t160.5 95t107.5 149.5t54.5 200l57 463q2 15 12 26t27 11h66z" />
    <glyph glyph-name="Omega" unicode="&#x3a9;" horiz-adv-x="1424" 
d="M835 86h417l-5 -51q-2 -16 -14 -25.5t-27 -9.5h-461l44 360q100 23 184 67.5t144.5 113t94.5 162t34 214.5q0 106 -33.5 187t-92.5 136t-139 82.5t-173 27.5q-112 0 -213.5 -36.5t-179 -108.5t-123 -179.5t-45.5 -249.5q0 -86 24 -154.5t68.5 -120.5t106.5 -87t138 -54
l-43 -360h-461q-17 0 -25 9.5t-6 25.5l5 51h418l27 224q-78 20 -143 61t-111.5 100.5t-72.5 136.5t-26 169q0 154 54 275.5t146.5 205.5t214.5 128.5t257 44.5q114 0 211.5 -35t168 -101t110.5 -160.5t40 -212.5q0 -125 -37.5 -227t-103 -180t-154 -130t-191.5 -76z" />
    <glyph glyph-name="alpha" unicode="&#x3b1;" horiz-adv-x="1087" 
d="M359 64q60 0 115 31t105 85.5t95 129.5t85 163q2 58 3.5 115t-2.5 108.5t-15 95.5t-32 76t-55.5 50t-84.5 18q-83 0 -156.5 -48.5t-129 -129t-88 -184.5t-32.5 -215q0 -146 50.5 -220.5t141.5 -74.5zM1024 995q-42 -149 -91.5 -284.5t-107.5 -253.5q-1 -75 -1.5 -143
t9 -120t32.5 -83t68 -31h43l-9 -51q-2 -12 -17.5 -23t-50.5 -11q-45 0 -71.5 25.5t-41 71.5t-19.5 109t-6 138q-47 -81 -98.5 -146t-106.5 -110.5t-114 -70.5t-120 -25q-116 0 -182.5 90t-66.5 269q0 85 17.5 167.5t49.5 156.5t77 136.5t99.5 108t117 71t130.5 25.5
q77 0 125.5 -32t76 -86t39 -124.5t14.5 -148.5q22 60 41.5 121.5t36.5 124.5q12 43 20 69t15.5 39t14 17t15.5 4h62z" />
    <glyph glyph-name="beta" unicode="&#x3b2;" horiz-adv-x="1016" 
d="M198 206q39 -69 106 -106.5t148 -37.5q84 0 150 31t112 84t70.5 125t24.5 153q0 69 -23 123.5t-65 92t-101 57t-132 19.5h-55l8 73h46q62 0 120 18.5t103 57.5t72.5 99t27.5 143q0 49 -14.5 90t-42 70t-67.5 45t-91 16q-65 0 -116 -25.5t-89.5 -81.5t-65 -144.5
t-42.5 -213.5l-74 -605zM190 896q33 270 131 401.5t279 131.5q73 0 128.5 -22t93 -60t57 -90t19.5 -113q0 -74 -21 -133t-58 -104t-88 -75t-110 -45q134 -26 206.5 -113t72.5 -218q0 -99 -30.5 -184.5t-86.5 -149t-136 -99.5t-180 -36q-41 0 -80.5 9t-76 27.5t-67.5 46
t-53 65.5l-26 -216l-44 -230q-12 -41 -49 -41h-33l77 644z" />
    <glyph glyph-name="beta.salt" horiz-adv-x="1043" 
d="M221 608q-23 -266 36.5 -406.5t207.5 -140.5q76 0 145 31.5t121 91.5t82.5 148t30.5 201q0 77 -23.5 133.5t-71 83.5t-120 21t-169.5 -52zM509 813q109 51 177 103.5t105.5 103t50.5 97.5t13 87q0 72 -42 112.5t-119 40.5q-74 0 -147 -40.5t-135.5 -124t-110.5 -210
t-72 -298.5zM617 822q77 16 136 1.5t99.5 -53.5t61 -98.5t20.5 -134.5q0 -131 -38.5 -233.5t-103.5 -173t-151 -107t-180 -36.5q-84 0 -147 32t-105 93t-63.5 149.5t-21.5 202.5q0 223 47.5 402t128 304.5t186 192.5t222.5 67q59 0 103.5 -16.5t74 -45t44.5 -67t15 -83.5
q0 -48 -15 -97.5t-52.5 -99t-101 -99.5t-159.5 -100z" />
    <glyph glyph-name="gamma" unicode="&#x3b3;" horiz-adv-x="971" 
d="M970 995q-49 -148 -102 -273.5t-113 -237t-127.5 -214.5t-145.5 -206l-51 -416h-93l51 419q-20 219 -43 381t-54 269t-73 159.5t-99 52.5h-32l4 34q2 17 13.5 26.5t49.5 9.5q69 0 120 -49t86.5 -153.5t58 -268.5t35.5 -394q129 172 226 375t174 445q8 24 18 32.5t25 8.5
h72z" />
    <glyph glyph-name="delta" unicode="&#x3b4;" horiz-adv-x="1008" 
d="M440 59q74 0 140 30t115.5 85.5t78.5 135.5t29 179q0 77 -20.5 137.5t-54 109.5t-77 88.5t-88.5 74.5q-81 -26 -153 -68t-126 -103.5t-86 -145.5t-32 -193q0 -65 16.5 -125t50.5 -105.5t85.5 -72.5t121.5 -27zM881 1341q-3 -14 -9.5 -18.5t-20.5 -4.5q-8 0 -32.5 6
t-58 12.5t-74.5 12.5t-82 6q-58 0 -98.5 -12t-66 -32t-37.5 -46t-12 -55q0 -39 21.5 -72.5t57 -65t81 -63.5t93 -68.5t93 -79.5t81 -97t57 -120.5t21.5 -150.5q0 -115 -35 -208.5t-97 -159.5t-146.5 -101.5t-183.5 -35.5q-89 0 -156.5 31.5t-113 86t-68.5 126.5t-23 153
q0 208 116 345.5t334 199.5q-43 31 -82.5 61.5t-70 63.5t-48.5 70.5t-18 82.5q0 43 17.5 83t55 71t96.5 49t142 18q29 0 64.5 -3t72 -7.5t73.5 -11.5t69 -14z" />
    <glyph glyph-name="epsilon" unicode="&#x3b5;" horiz-adv-x="835" 
d="M705 128q-26 -30 -62 -56t-79 -44.5t-90.5 -29t-97.5 -10.5q-70 0 -128.5 19.5t-101 54t-66 82.5t-23.5 106q0 49 17 94t51 81.5t85 63.5t120 39q-53 12 -89.5 35t-58.5 51.5t-31.5 60.5t-9.5 63q0 51 23 100t68.5 87.5t112.5 62t156 23.5q97 0 166.5 -30.5t113.5 -79.5
l-24 -33q-7 -8 -12 -10.5t-13 -2.5q-9 0 -24 13t-42 29t-67.5 29t-99.5 13q-68 0 -118.5 -17.5t-84.5 -46t-50.5 -66t-16.5 -76.5q0 -36 16 -68t46.5 -55.5t74 -37t98.5 -13.5h149l-7 -64h-150q-74 0 -130.5 -17.5t-95 -48.5t-58.5 -74t-20 -95q0 -44 16.5 -81t47.5 -63.5
t75 -41.5t99 -15q68 0 115.5 17t79.5 37.5t51 37.5t30 17t18 -9z" />
    <glyph glyph-name="zeta" unicode="&#x3b6;" horiz-adv-x="695" 
d="M817 1382q0 -8 -2.5 -15.5t-12 -19.5t-29 -31.5t-52.5 -49.5q-63 -57 -128.5 -118.5t-127 -128.5t-116 -138.5t-95 -148.5t-64 -158.5t-23.5 -167.5q0 -65 17.5 -110.5t49 -78.5t76 -55t97.5 -39q75 -24 122.5 -50t74 -53t36 -54.5t9.5 -53.5q0 -71 -28 -130.5
t-70 -121.5l-68 31q14 21 27.5 43.5t24.5 47t18 50.5t7 54q0 19 -7.5 39.5t-29 40.5t-60.5 40t-102 39q-66 21 -118.5 48.5t-90 67.5t-57.5 94.5t-20 128.5q0 135 49.5 256t136 237.5t204.5 233t255 241.5q-76 -6 -166.5 -9.5t-188.5 -3.5h-86q-20 0 -27.5 9.5t-5.5 20.5
l6 46h562z" />
    <glyph glyph-name="eta" unicode="&#x3b7;" horiz-adv-x="1057" 
d="M287 695q40 75 88.5 133.5t102 99t109.5 61.5t113 21q64 0 110 -25t73.5 -73t36 -117.5t-2.5 -158.5l-121 -988h-93l121 988h2q17 143 -19.5 218.5t-137.5 75.5q-53 0 -107.5 -26t-106 -74.5t-98 -117.5t-82.5 -155l-68 -557h-91l93 758q11 91 -18 133t-101 42h-33l4 34
q2 17 15.5 26.5t45.5 9.5q45 0 80 -13t57.5 -41t31 -72.5t1.5 -107.5z" />
    <glyph glyph-name="theta" unicode="&#x3b8;" horiz-adv-x="1106" 
d="M225 682q-2 -38 -3.5 -78.5t-1.5 -82.5q0 -108 16.5 -193t50.5 -144.5t84.5 -91t118.5 -31.5q87 0 157 42.5t122 123t84.5 195.5t46.5 260h-675zM905 748q2 35 3 71t1 74q0 109 -16.5 195t-49.5 146t-82.5 91.5t-115.5 31.5q-89 0 -159 -42t-122 -121t-85.5 -192
t-47.5 -254h674zM650 1430q83 0 147.5 -37.5t109 -108t67.5 -171.5t23 -229q0 -211 -36 -377.5t-102.5 -282t-161 -176.5t-212.5 -61q-86 0 -152 37t-111 107t-68.5 171t-23.5 229q0 210 36 377t103.5 283t164 177.5t216.5 61.5z" />
    <glyph glyph-name="theta.salt" horiz-adv-x="1169" 
d="M1174 995l-4 -39q-1 -12 -9.5 -21.5t-25.5 -9.5h-128v-34q0 -203 -31.5 -370t-95.5 -285.5t-161.5 -183.5t-228.5 -65q-89 0 -150 33t-97 91.5t-47 137t0 170.5l25 207q6 45 2 74.5t-17.5 47t-37.5 25t-59 7.5h-36l4 34q2 17 21.5 26.5t62.5 9.5q40 0 72 -11t52.5 -37.5
t28.5 -69.5t0 -106l-25 -207q-9 -74 -2.5 -139.5t32 -114t70.5 -76.5t114 -28q93 0 170 49t132 151.5t85.5 261t30.5 376.5v26q-116 1 -215.5 15.5t-172.5 45.5t-115 80.5t-42 119.5q0 53 17.5 97.5t52 77t85 50.5t117.5 18q70 0 131 -25.5t107.5 -78.5t76.5 -135t40 -195
h171zM460 1190q0 -52 34 -88.5t95 -59.5t145 -34.5t183 -12.5q-16 177 -86 270.5t-185 93.5q-47 0 -82 -13t-58 -36t-34.5 -53.5t-11.5 -66.5z" />
    <glyph glyph-name="iota" unicode="&#x3b9;" horiz-adv-x="456" 
d="M195 995h92l-92 -754q-11 -90 19.5 -136.5t108.5 -46.5h64l-3 -30q-5 -40 -101 -40q-105 0 -150 65.5t-31 182.5z" />
    <glyph glyph-name="lambda" unicode="&#x3bb;" horiz-adv-x="975" 
d="M911 62l-5 -36q-2 -20 -16.5 -27.5t-48.5 -7.5q-38 0 -68.5 7.5t-54.5 28.5t-42.5 59.5t-30.5 100.5l-134 567q-5 27 -7.5 47.5t-2.5 38.5q-6 -17 -13.5 -36t-17.5 -40l-366 -740q-5 -11 -14 -17.5t-28 -6.5h-72l476 933l-70 313q-6 29 -15.5 50.5t-25.5 35t-39.5 20
t-59.5 6.5h-54l4 35q1 14 16 25t61 11q82 0 129.5 -32.5t66.5 -112.5l254 -1096q16 -69 45.5 -97.5t81.5 -28.5h51z" />
    <glyph glyph-name="mu" unicode="&#x3bc;" horiz-adv-x="1088" 
d="M1013 64l-4 -39q-2 -13 -22.5 -23.5t-58.5 -10.5q-39 0 -72.5 12t-58.5 37t-38.5 64t-12.5 93q-72 -95 -158.5 -149t-183.5 -54q-88 0 -143 35.5t-81 103.5q-2 -40 -5 -81t-8 -76l-40 -328h-47q-21 0 -31 11t-8 31l161 1305h96l-79 -637q-6 -67 2.5 -120t33.5 -89.5
t65.5 -56t98.5 -19.5q94 0 177 55t149 155l88 712h95l-93 -757q-11 -91 28 -132.5t110 -41.5h40z" />
    <glyph glyph-name="nu" unicode="&#x3bd;" horiz-adv-x="932" 
d="M931 995q-52 -156 -108.5 -290t-120.5 -254.5t-137.5 -231t-158.5 -219.5h-56l-264 995h72q13 0 20.5 -7t9.5 -17l201 -789q5 -20 8 -40t5 -40q67 88 125 184.5t109 202t96 222.5t87 248q5 20 15.5 28t21.5 8h75z" />
    <glyph glyph-name="xi" unicode="&#x3be;" horiz-adv-x="707" 
d="M768 1376q-2 -17 -15 -27t-28 -10h-75q-78 0 -144 -26.5t-115 -71.5t-76.5 -104.5t-27.5 -124.5q0 -47 17.5 -86t52 -67.5t85.5 -44.5t119 -16h70l-9 -75h-98q-91 0 -159 -25t-113 -70t-67.5 -106t-22.5 -133q0 -59 20.5 -102.5t57.5 -76.5t88 -58t112 -48
q55 -21 90 -42.5t55.5 -44t28.5 -46.5t8 -51q0 -74 -28 -135.5t-71 -123.5l-68 32q14 21 28 44t25 48t18 52t7 57q0 19 -6 37t-22.5 34.5t-45.5 32.5t-75 31q-65 22 -122.5 51t-100.5 70t-67.5 96t-24.5 129q0 66 19 128.5t58 115t100 91.5t145 57q-100 29 -146 92.5
t-46 143.5q0 62 24 116.5t65.5 99t97.5 77.5t120 52q-38 -2 -79 -3.5t-94 -1.5h-107q-38 0 -33 35l5 37h575z" />
    <glyph glyph-name="xi.salt" horiz-adv-x="708" 
d="M772 1415l-5 -37q-2 -18 -15.5 -28t-27.5 -10h-90q-86 0 -150.5 -21t-108 -60t-65 -94.5t-21.5 -124.5q0 -48 17 -92t50.5 -77t84.5 -53t119 -20h69l-8 -75h-88q-95 0 -165 -24.5t-116 -68.5t-68.5 -105t-22.5 -133q0 -60 19.5 -104t55.5 -77.5t87 -59t115 -47.5
q54 -19 89.5 -39.5t56.5 -43t29 -48t8 -53.5q0 -72 -28.5 -134.5t-70.5 -124.5l-69 32q14 21 28 45t25 49.5t18 52.5t7 55q0 19 -6 36.5t-22 34t-45.5 32t-75.5 31.5q-62 21 -118.5 49.5t-100.5 69t-70 96.5t-26 133q0 67 19.5 131t61 117t106 91t153.5 54
q-53 16 -91.5 43.5t-63.5 62.5t-37.5 76.5t-12.5 85.5q0 84 27.5 153t82.5 119t137.5 77.5t191.5 27.5h131z" />
    <glyph glyph-name="pi" unicode="&#x3c0;" horiz-adv-x="1106" 
d="M1076 934q-3 -31 -38 -31h-156q-11 -84 -21 -147.5t-18.5 -113.5t-15 -91t-11 -81.5t-7 -84.5t-2.5 -100q0 -68 7.5 -110.5t22 -66.5t35.5 -32.5t49 -8.5h28l-5 -38q-2 -16 -22.5 -25t-55.5 -9q-39 0 -68.5 12t-49.5 39.5t-30.5 72.5t-10.5 110q0 61 9.5 131.5t24 153
t31.5 179t33 210.5h-395q-35 -257 -78 -431.5t-89.5 -280.5t-94 -151.5t-90.5 -45.5q-16 0 -29.5 4.5t-12.5 15.5l8 66h18q25 0 61 44.5t75.5 142.5t78.5 254.5t70 381.5h-214l5 39q2 13 13.5 25.5t31.5 12.5h918z" />
    <glyph glyph-name="rho" unicode="&#x3c1;" horiz-adv-x="1029" 
d="M189 236q22 -45 52 -78t63.5 -55t69.5 -33t71 -11q89 0 160 41.5t120.5 114t76 170.5t26.5 211q0 85 -18.5 149t-52.5 107t-82 64t-107 21q-62 0 -118 -24t-102 -72.5t-77.5 -121.5t-43.5 -171zM134 545q14 117 52.5 204t96.5 145.5t132.5 87.5t161.5 29q76 0 140 -27
t110 -80t71.5 -131t25.5 -179q0 -125 -33.5 -235t-94.5 -193t-148 -131t-193 -48q-41 0 -80.5 11t-75.5 32t-67 51t-54 68l-61 -501h-93z" />
    <glyph glyph-name="sigma" unicode="&#x3c3;" horiz-adv-x="1074" 
d="M616 915q-115 0 -198.5 -37.5t-137.5 -105.5t-79.5 -162t-25.5 -206q0 -81 18.5 -145t54 -108.5t87.5 -67.5t119 -23q93 0 164 38.5t120 108.5t74 168.5t25 218.5q0 61 -12 114.5t-35.5 96t-59 71t-82.5 39.5h-32zM1090 988l-5 -37q-2 -15 -12 -25.5t-33 -10.5h-276
q80 -48 123 -136t43 -203q0 -127 -34 -235t-97 -186.5t-152.5 -123t-200.5 -44.5q-85 0 -152.5 29t-115 83t-73 132t-25.5 176q0 127 36 234t106 184t171.5 120t232.5 43h464z" />
    <glyph glyph-name="sigma1" unicode="&#x3c2;" horiz-adv-x="845" 
d="M804 864q-5 -6 -10 -9.5t-13 -3.5q-9 0 -24 13.5t-40 30t-62.5 30t-92.5 13.5q-87 0 -157.5 -36t-120 -99t-76.5 -149t-27 -186q0 -87 25 -145.5t67.5 -99t100 -67.5t122.5 -51q57 -21 94 -41.5t58.5 -43t29.5 -47.5t8 -54q0 -74 -28.5 -135.5t-70.5 -123.5l-69 31
q14 22 28 45t25 48t18 52.5t7 57.5q0 19 -6 37t-23 34.5t-46.5 32.5t-77.5 32q-77 26 -142.5 59t-113.5 82t-75 118.5t-27 169.5q0 118 33 219t95 175t150.5 116t199.5 42q91 0 157.5 -31t111.5 -84z" />
    <glyph glyph-name="tau" unicode="&#x3c4;" horiz-adv-x="837" 
d="M834 942q-2 -16 -12 -25.5t-27 -9.5h-331l-80 -659q-11 -90 19.5 -136.5t108.5 -46.5h65l-4 -30q-5 -40 -102 -40q-104 0 -149 66t-31 183l80 663h-301l6 41q2 14 11 23t26 9h726z" />
    <glyph glyph-name="upsilon" unicode="&#x3c5;" horiz-adv-x="1010" 
d="M882 995q2 -32 3.5 -67.5t3 -70.5t2.5 -67.5t1 -58.5q0 -203 -40.5 -345.5t-106.5 -231.5t-150.5 -129.5t-172.5 -40.5q-82 0 -144 25.5t-102 74t-56.5 118t-5.5 157.5l78 636h93l-78 -636q-9 -71 3.5 -127t42.5 -94.5t76 -59t106 -20.5q62 0 126.5 32t117 106t86 195.5
t33.5 300.5q0 27 -1 61t-2.5 70t-3 71.5t-3.5 65.5q0 19 10.5 27t20.5 8h63z" />
    <glyph glyph-name="phi" unicode="&#x3c6;" horiz-adv-x="1292" 
d="M619 58q118 1 207.5 45.5t149.5 119.5t90.5 173.5t30.5 208.5q0 70 -14.5 131t-41.5 106.5t-67 71.5t-91 26q-75 0 -121.5 -51.5t-59.5 -157.5zM614 731q17 139 86 209.5t188 70.5q71 0 127 -31.5t95 -86t59.5 -128.5t20.5 -158q0 -131 -39.5 -243.5t-114.5 -196
t-182.5 -131.5t-242.5 -49l-42 -339h-88l42 339q-110 1 -192.5 37t-138.5 96.5t-84 141t-28 170.5q0 101 26.5 190t75 162.5t116.5 129.5t152 91l20 -38q5 -11 -0.5 -23.5t-16.5 -17.5q-69 -34 -121.5 -85.5t-88 -115.5t-53 -137.5t-17.5 -151.5q0 -75 21.5 -143.5
t65.5 -120t111.5 -82.5t159.5 -32z" />
    <glyph glyph-name="phi.salt" horiz-adv-x="1294" 
d="M624 58q118 1 206.5 38t147 104.5t88 161t29.5 207.5q0 82 -22 149.5t-67 116.5t-113 76.5t-160 28.5zM645 940q-118 -1 -206 -38.5t-147 -105.5t-88.5 -162t-29.5 -207q0 -82 22 -149.5t67 -116t113 -75.5t160 -28zM741 1011q109 -1 192.5 -33.5t140 -90t85.5 -138
t29 -177.5q0 -132 -38.5 -239.5t-112 -184t-179.5 -118.5t-242 -43l-42 -339h-88l42 339q-110 1 -193.5 33t-139.5 90t-85 138t-29 177q0 132 38.5 239.5t112 184.5t179.5 119t242 43l50 404h88z" />
    <glyph glyph-name="chi" unicode="&#x3c7;" horiz-adv-x="850" 
d="M606 -165q19 -68 47.5 -97t79.5 -29h29l-4 -37q-2 -19 -12 -26t-39 -7q-30 0 -57.5 6.5t-51.5 24.5t-43.5 50t-34.5 84l-140 482q-8 -24 -18 -47.5t-20 -42.5l-305 -521q-5 -9 -14 -16.5t-23 -7.5h-64l412 706l-133 463q-9 29 -20 50t-28 35t-41 20.5t-59 6.5h-29l5 35
q1 7 2.5 13.5t6.5 11t15 7.5t28 3q85 0 132 -33.5t70 -110.5l129 -447q17 51 39 92l271 468q5 8 13.5 16t22.5 8h65l-380 -653z" />
    <glyph glyph-name="psi" unicode="&#x3c8;" horiz-adv-x="1357" 
d="M1231 995q2 -32 4 -67.5t3.5 -70.5t2.5 -67.5t1 -58.5q0 -141 -24 -250t-65.5 -190t-98 -137t-122 -91.5t-137.5 -52.5t-143 -21l-42 -341h-93l42 340q-111 5 -198.5 37t-144.5 89.5t-82 141t-12 190.5l67 549h63q13 0 20 -12t5 -26l-63 -511q-10 -84 10.5 -152.5
t67 -118t116.5 -78.5t160 -35l166 1353h93l-166 -1352q58 4 116.5 18.5t112.5 44t101 76.5t81.5 115t54 160t19.5 212q0 32 -1.5 67t-3 70.5t-3.5 69.5t-3 64q1 19 10.5 27t20.5 8h65z" />
    <glyph glyph-name="omega" unicode="&#x3c9;" horiz-adv-x="1357" 
d="M1163 995q34 -94 57 -205.5t23 -222.5q0 -149 -33.5 -258.5t-88.5 -181.5t-126 -107.5t-145 -35.5q-91 0 -148.5 53.5t-73.5 156.5q-42 -103 -112.5 -156.5t-159.5 -53.5q-57 0 -107.5 25.5t-87.5 75t-58.5 123t-21.5 170.5q0 94 16.5 175t44.5 155.5t66 144.5t81 142h58
q7 0 14 -2.5t10.5 -8.5t2.5 -14.5t-9 -20.5q-44 -68 -79.5 -134.5t-60.5 -134.5t-38.5 -141t-13.5 -154q0 -93 19.5 -156t49 -101t64.5 -54t67 -16q45 0 83 20.5t67 58.5t48.5 91.5t28.5 119.5l39 312h92l-37 -306q-8 -68 -2.5 -122.5t25 -93t52.5 -59.5t79 -21
q42 0 94.5 23t98.5 79.5t77.5 152t31.5 239.5q0 49 -6 101.5t-16.5 104.5t-25 101.5t-31.5 92.5q-4 11 -2 19t7 13.5t11.5 8t12.5 2.5h63z" />
    <glyph glyph-name="tonos" unicode="&#x384;" 
d="M469 1154l110 317h56q16 0 20.5 -12.5t-3.5 -31.5l-126 -273h-57z" />
    <glyph glyph-name="dieresistonos" unicode="&#x385;" 
d="M469 1156l109 317h56q16 0 21 -12t-4 -32l-126 -273h-56zM826 1265q-2 -15 -9 -28t-18 -22.5t-24 -15.5t-26 -6q-28 0 -45.5 21.5t-14.5 50.5q4 30 26.5 52.5t49.5 22.5t45.5 -22.5t15.5 -52.5zM410 1265q-2 -15 -9 -28t-17.5 -22.5t-24 -15.5t-26.5 -6q-27 0 -45 21.5
t-15 50.5q4 30 26.5 52.5t49.5 22.5q13 0 25 -6t20.5 -16.5t13 -24t2.5 -28.5z" />
    <glyph glyph-name="uni0374" unicode="&#x374;" horiz-adv-x="365" 
d="M388 1501q0 -57 -8.5 -115.5t-28 -115.5t-51 -110.5t-76.5 -100.5l-25 18q-14 11 -2 28q25 32 46 66t34 69.5t17 73t-5 75.5l10 81q2 13 9 22t23 9h57z" />
    <glyph glyph-name="uni0375" unicode="&#x375;" horiz-adv-x="367" 
d="M250 271q0 -57 -8.5 -115.5t-28 -115.5t-51 -110.5t-76.5 -100.5l-25 18q-14 11 -2 28q25 32 46 66t34 69.5t17 73t-5 75.5l10 81q2 13 9 22t23 9h57z" />
    <glyph glyph-name="afii10018" unicode="&#x411;" horiz-adv-x="1137" 
d="M308 695l-75 -616h300q93 0 163.5 24.5t118.5 71t72.5 114t24.5 153.5q0 124 -75 188.5t-228 64.5h-301zM387 1336l-69 -562h302q99 0 172.5 -22.5t122.5 -64t73 -100.5t24 -133q0 -105 -33 -189t-96 -143t-154 -90.5t-206 -31.5h-400l174 1415h794l-9 -79h-695z" />
    <glyph glyph-name="afii10020" unicode="&#x413;" horiz-adv-x="998" 
d="M1051 1335h-664l-164 -1335h-100l174 1415h764z" />
    <glyph glyph-name="afii10050" unicode="&#x490;" horiz-adv-x="998" 
d="M1051 1335h-664l-164 -1335h-100l174 1415h685l40 326h79z" />
    <glyph glyph-name="afii10021" unicode="&#x414;" horiz-adv-x="1403" 
d="M969 80l154 1255h-517q-33 -197 -65.5 -357t-66 -288.5t-67 -227t-67.5 -172.5t-68.5 -125t-69.5 -85h767zM1245 -323q-2 -14 -12 -23t-25 -9h-58l44 355h-1159l-40 -323q-1 -14 -11.5 -23t-25.5 -9h-58l54 435h121q35 15 71 50.5t72.5 101.5t74 166.5t75 244t76 334.5
t77.5 438h712l-164 -1335h226z" />
    <glyph glyph-name="afii10024" unicode="&#x416;" horiz-adv-x="1856" 
d="M1396 823q-29 -36 -59 -58.5t-71 -33.5q41 -11 69.5 -35.5t49.5 -64.5l363 -631h-65q-23 0 -38.5 10t-23.5 27l-335 569q-21 38 -51 57.5t-83 19.5h-166l-84 -683h-94l84 683h-165q-54 0 -89 -19.5t-65 -57.5l-473 -569q-13 -17 -31 -27t-40 -10h-67l518 631
q32 40 66 64.5t78 35.5q-38 11 -62.5 33.5t-45.5 58.5l-357 592h76q17 0 30.5 -9t20.5 -24l330 -548q27 -46 60 -60t78 -14h147l80 655h95l-81 -655h148q23 0 43 3t38.5 11t37 22.5t37.5 37.5l465 548q11 15 26 24t32 9h77z" />
    <glyph glyph-name="afii10025" unicode="&#x417;" horiz-adv-x="1055" 
d="M201 1286q84 70 180.5 106t215.5 36q87 0 154.5 -23.5t113.5 -65.5t70 -99t24 -124q0 -69 -21.5 -127t-59 -103t-88 -76.5t-108.5 -48.5q57 -17 101.5 -47.5t74.5 -71t45.5 -90t15.5 -104.5q0 -95 -34 -179t-98 -147t-157 -99.5t-210 -36.5q-144 0 -243.5 49.5
t-167.5 135.5l32 42q6 7 12.5 11t15.5 4q10 0 22.5 -12t31.5 -29.5t45.5 -38t62.5 -38t84 -29.5t110 -12q94 0 168 29t125.5 79t78.5 118.5t27 148.5q0 58 -18.5 108t-55.5 87t-92 58t-127 21h-170l11 84h173q61 0 118.5 20t101.5 59t71 95t27 128q0 52 -18 96.5t-53 77
t-86.5 50.5t-118.5 18q-84 0 -143.5 -19t-100 -41.5t-64.5 -41.5t-37 -19q-15 0 -23 17z" />
    <glyph glyph-name="afii10026" unicode="&#x418;" horiz-adv-x="1403" 
d="M1306 1415l-174 -1415h-100l142 1154q3 32 8.5 65t13.5 68q-16 -30 -32 -55.5t-32 -47.5l-886 -1153q-9 -13 -22.5 -22t-30.5 -9h-70l174 1415h100l-142 -1154q-3 -32 -8.5 -65t-13.5 -68q16 30 32 55.5t32 47.5l886 1153q10 14 23 22.5t27 8.5h73z" />
    <glyph glyph-name="afii10028" unicode="&#x41a;" horiz-adv-x="1190" 
d="M712 815q-28 -33 -57.5 -53.5t-67.5 -31.5q42 -9 67.5 -32t48.5 -64l386 -634h-87q-19 0 -30 9t-22 28l-352 576q-11 18 -21.5 31.5t-24.5 22t-32.5 12.5t-44.5 4h-168l-84 -683h-100l174 1415h99l-80 -655h150q23 0 42 3t36.5 11t35 22t36.5 36l472 551q11 14 25.5 23
t31.5 9h82z" />
    <glyph glyph-name="afii10029" unicode="&#x41b;" horiz-adv-x="1310" 
d="M1040 0h-101l164 1335h-517q-46 -281 -92 -490.5t-92.5 -359t-94.5 -246t-98 -152.5t-102.5 -77.5t-108.5 -21.5q-30 0 -52 6t-20 17l8 62h56q42 0 84 20.5t83.5 75t83.5 150t85 244.5t86.5 358.5t88.5 493.5h713z" />
    <glyph glyph-name="afii10058" unicode="&#x409;" horiz-adv-x="1928" 
d="M1354 79q93 0 164 24.5t119 71t72.5 114t24.5 153.5q0 124 -75 188.5t-228 64.5h-306l-75 -616h304zM1441 774q99 0 172.5 -22.5t122.5 -64t73 -100.5t24 -133q0 -105 -33 -189t-96 -143t-154 -90.5t-206 -31.5h-405l164 1335h-517q-46 -281 -92 -490.5t-92.5 -359
t-94.5 -246t-98 -152.5t-102.5 -77.5t-108.5 -21.5q-30 0 -52 6t-20 17l8 62h56q42 0 84 20.5t83.5 75t83.5 150t85 244.5t86.5 358.5t88.5 493.5h713l-79 -641h306z" />
    <glyph glyph-name="afii10059" unicode="&#x40a;" horiz-adv-x="2011" 
d="M1436 79q93 0 164 24.5t119 71t72.5 114t24.5 153.5q0 124 -75 188.5t-228 64.5h-296l-75 -616h294zM1523 774q99 0 172.5 -22.5t122.5 -64t73 -100.5t24 -133q0 -105 -33 -189t-96 -143t-154 -90.5t-206 -31.5h-394l83 679h-808l-83 -679h-100l174 1415h100l-81 -661
h808l81 661h100l-79 -641h296z" />
    <glyph glyph-name="afii10147" unicode="&#x472;" horiz-adv-x="1473" 
d="M223 686q-3 -41 -3 -84q0 -123 32 -221.5t91 -167.5t142 -106.5t186 -37.5q119 0 221.5 42.5t181 122t130 194t67.5 258.5h-1048zM1277 763q1 13 1 25.5v25.5q0 123 -31.5 221.5t-90.5 168t-142.5 107t-186.5 37.5q-114 0 -213.5 -40.5t-177.5 -116t-131 -184t-73 -244.5
h1045zM838 1431q125 0 225.5 -44.5t171 -125.5t108.5 -194.5t38 -250.5q0 -187 -54.5 -340t-151.5 -262t-229 -169t-286 -60q-124 0 -224 44.5t-170.5 125.5t-108.5 194t-38 250q0 186 55 339.5t151.5 263t228 169.5t284.5 60z" />
    <glyph glyph-name="afii10033" unicode="&#x41f;" horiz-adv-x="1345" 
d="M1074 0h-100l164 1335h-751l-164 -1335h-100l174 1415h951z" />
    <glyph glyph-name="afii10037" unicode="&#x423;" horiz-adv-x="1122" 
d="M1190 1415l-687 -1247q-28 -50 -56.5 -84.5t-59.5 -55.5t-64.5 -30.5t-70.5 -9.5q-38 0 -59 7.5t-19 24.5l6 53h57q59 0 104 31.5t85 104.5l103 187l-402 1019h90q14 0 21.5 -6.5t12.5 -18.5l301 -808q9 -26 16 -53t12 -54q22 54 51 107l434 808q7 11 16.5 18t23.5 7h85z
" />
    <glyph glyph-name="afii10148" unicode="&#x474;" horiz-adv-x="1261" 
d="M1047 1262q35 79 90 117.5t124 38.5q45 0 56.5 -6.5t9.5 -23.5l-6 -52h-50q-39 0 -75.5 -29t-60.5 -80l-558 -1227h-89l-364 1415h76q14 0 22.5 -7.5t10.5 -18.5l294 -1181q5 -21 10 -45t8 -50q9 26 18.5 50t20.5 45z" />
    <glyph glyph-name="afii10038" unicode="&#x424;" horiz-adv-x="1408" 
d="M708 253q115 1 212 46t167 120.5t109 176t39 212.5q0 87 -27.5 165.5t-79 138t-127 95t-171.5 36.5zM734 1243q-116 -1 -212.5 -46t-166 -120.5t-108.5 -175.5t-39 -212q0 -88 27.5 -166.5t79 -138t127 -95t171.5 -36.5zM840 1321q118 -2 210 -43.5t155.5 -111.5
t96.5 -161.5t33 -192.5q0 -129 -46.5 -244t-130.5 -201.5t-201 -138t-258 -53.5l-22 -175h-95l21 175q-118 1 -210 42.5t-155.5 111.5t-97 162t-33.5 194q0 129 47.5 243.5t132.5 201t202 138t255 53.5l20 165h96z" />
    <glyph glyph-name="afii10040" unicode="&#x426;" horiz-adv-x="1409" 
d="M1297 80l-49 -403q-2 -14 -12 -23t-25 -9h-58l44 355h-1074l174 1415h100l-164 -1335h751l164 1335h100l-164 -1335h213z" />
    <glyph glyph-name="afii10145" unicode="&#x40f;" horiz-adv-x="1345" 
d="M1248 1415l-174 -1415h-430l-39 -323q-2 -14 -12.5 -23t-25.5 -9h-58l44 355h-430l174 1415h100l-164 -1335h751l164 1335h100z" />
    <glyph glyph-name="afii10041" unicode="&#x427;" horiz-adv-x="1194" 
d="M1097 1415l-174 -1415h-100l83 673q-107 -33 -208.5 -54t-191 -25t-162 12.5t-121.5 59t-70.5 114.5t-7.5 179l55 456h101l-57 -456q-15 -121 26 -187.5t128.5 -88.5t218.5 -3.5t298 68.5l82 667h100z" />
    <glyph glyph-name="afii10042" unicode="&#x428;" horiz-adv-x="1975" 
d="M1878 1415l-174 -1415h-1581l174 1415h100l-164 -1335h637l164 1335h100l-164 -1335h644l163 1335h101z" />
    <glyph glyph-name="afii10043" unicode="&#x429;" horiz-adv-x="2040" 
d="M1927 80l-49 -403q-2 -14 -12 -23t-25 -9h-58l44 355h-1704l174 1415h100l-164 -1335h637l164 1335h100l-164 -1335h644l163 1335h101l-164 -1335h213z" />
    <glyph glyph-name="afii10044" unicode="&#x42a;" horiz-adv-x="1318" 
d="M744 79q93 0 163.5 24.5t118.5 71t72.5 114t24.5 153.5q0 124 -75 188.5t-228 64.5h-301l-75 -616h300zM831 774q99 0 172.5 -22.5t122.5 -64t73 -100.5t24 -133q0 -105 -33 -189t-96 -143t-154 -90.5t-206 -31.5h-400l164 1333h-390l10 82h489l-78 -641h302z" />
    <glyph glyph-name="afii10045" unicode="&#x42b;" horiz-adv-x="1594" 
d="M533 79q93 0 163.5 24.5t118.5 71t72.5 114t24.5 153.5q0 124 -75 188.5t-228 64.5h-301l-75 -616h300zM620 774q99 0 172.5 -22.5t122.5 -64t73 -100.5t24 -133q0 -105 -33 -189t-96 -143t-154 -90.5t-206 -31.5h-400l174 1415h99l-78 -641h302zM1324 0h-100l173 1415
h100z" />
    <glyph glyph-name="afii10046" unicode="&#x42c;" horiz-adv-x="1108" 
d="M533 79q93 0 163.5 24.5t118.5 71t72.5 114t24.5 153.5q0 124 -75 188.5t-228 64.5h-301l-75 -616h300zM620 774q99 0 172.5 -22.5t122.5 -64t73 -100.5t24 -133q0 -105 -33 -189t-96 -143t-154 -90.5t-206 -31.5h-400l174 1415h99l-78 -641h302z" />
    <glyph glyph-name="afii10047" unicode="&#x42d;" horiz-adv-x="1269" 
d="M181 1260q96 82 205 126.5t245 44.5q127 0 228 -45.5t171.5 -127.5t108 -195.5t37.5 -249.5q0 -186 -53.5 -339t-148 -261.5t-224 -168.5t-281.5 -60q-81 0 -146.5 14.5t-119.5 41t-98 64t-80 83.5l44 42q8 7 18 7t17 -10q34 -39 71.5 -68t81 -49t96.5 -30t119 -10
q111 0 211.5 42t180 121.5t133 194t70.5 259.5h-722l9 77h719q1 11 1 23v24q0 122 -32 221t-91 169t-142.5 108t-187.5 38q-92 0 -160.5 -22t-116.5 -48t-77 -48t-40 -22q-16 0 -22 12z" />
    <glyph glyph-name="afii10053" unicode="&#x404;" horiz-adv-x="1271" 
d="M1142 188q-46 -47 -98 -84.5t-112.5 -64t-129.5 -41t-150 -14.5q-122 0 -220.5 44.5t-168 125t-107 193.5t-37.5 250q0 124 25 234t70.5 202.5t110.5 166t145.5 125t173.5 79t196 27.5q134 0 234.5 -45t175.5 -127l-36 -43q-9 -12 -25 -12q-11 0 -34 22t-64.5 48.5
t-105 48.5t-155.5 22q-111 0 -210.5 -40t-178.5 -115.5t-133 -183.5t-75 -243h722l-9 -77h-722q-3 -39 -3 -80q0 -125 33 -224t92 -169t141 -107t180 -37q65 0 119.5 10t103.5 29.5t93.5 49t88.5 69.5q10 8 19 9.5t17 -7.5l34 -41v0z" />
    <glyph glyph-name="afii10048" unicode="&#x42e;" horiz-adv-x="1919" 
d="M1168 70q119 0 220.5 52.5t176 150t116.5 237.5t42 314q0 120 -27.5 216.5t-79.5 165t-125.5 105.5t-165.5 37q-119 0 -221 -53t-176.5 -151.5t-116.5 -238.5t-42 -314q0 -120 27.5 -216.5t79.5 -164t126 -104t166 -36.5zM678 750q21 154 78.5 280t144 215t197 137.5
t237.5 48.5q113 0 203.5 -44t154 -124t97.5 -191.5t34 -246.5q0 -126 -23 -237t-65.5 -204t-102.5 -166.5t-134 -125t-160 -78.5t-181 -27q-113 0 -204 43.5t-154.5 122.5t-97.5 190t-34 246q0 42 3 81h-365l-82 -670h-100l173 1415h100l-81 -665h362z" />
    <glyph glyph-name="afii10049" unicode="&#x42f;" horiz-adv-x="1206" 
d="M999 1335h-303q-186 0 -282 -91t-96 -264q0 -125 74.5 -192.5t226.5 -67.5h305zM935 0h-100l79 641h-229q-26 0 -49.5 -4.5t-46.5 -16.5t-47.5 -33.5t-52.5 -55.5l-406 -494q-12 -17 -30 -27t-40 -10h-75l447 542q35 44 69.5 71t71.5 42q-154 19 -230.5 104t-76.5 217
q0 102 33 183.5t95.5 138t153 87t205.5 30.5h402z" />
    <glyph glyph-name="afii10051" unicode="&#x402;" horiz-adv-x="1343" 
d="M859 774q99 0 173 -22.5t123 -64t73 -100.5t24 -133q0 -105 -33 -189t-96 -143t-154 -90.5t-206 -31.5h-98l9 79h99q92 0 163 24.5t119 71t72.5 114t24.5 153.5q0 124 -75 188.5t-227 64.5h-325l-86 -695h-99l163 1333h-387l10 82h941l-10 -82h-454l-69 -559h325z" />
    <glyph glyph-name="afii10060" unicode="&#x40b;" horiz-adv-x="1357" 
d="M535 768q106 32 203.5 53t180.5 25t149 -12.5t109 -59t60.5 -114.5t4.5 -179l-59 -481h-100l59 481q15 121 -20 188t-115 89t-201.5 3.5t-280.5 -67.5l-85 -694h-99l163 1333h-388l10 82h942l-10 -82h-454z" />
    <glyph glyph-name="afii10146" unicode="&#x462;" horiz-adv-x="1318" 
d="M742 79q93 0 163.5 24.5t118.5 71t72.5 114t24.5 153.5q0 124 -75 188.5t-228 64.5h-301l-75 -616h300zM829 774q99 0 172.5 -22.5t122.5 -64t73 -100.5t24 -133q0 -105 -33 -189t-96 -143t-154 -90.5t-206 -31.5h-400l134 1091h-348l10 77h348l30 247h99l-30 -247h428
l-9 -77h-428l-39 -317h302z" />
    <glyph glyph-name="afii10066" unicode="&#x431;" horiz-adv-x="1061" 
d="M637 921q-89 0 -165.5 -43t-132.5 -113.5t-88 -162.5t-32 -189q0 -176 66 -265t183 -89q59 0 111.5 22.5t97 62.5t79.5 94t60 116t38 129.5t13 135.5q0 73 -16.5 129.5t-46.5 94.5t-72.5 58t-94.5 20zM1028 1474v-46q0 -35 -34 -43l-261 -42q-103 -16 -180 -54.5
t-133 -92t-94 -119.5t-62 -138.5t-37 -148t-19 -148.5q30 81 77.5 145.5t107.5 109.5t129.5 69t143.5 24q62 0 116 -22.5t93.5 -67.5t62.5 -113.5t23 -160.5q0 -77 -16 -154.5t-46.5 -148.5t-74.5 -132.5t-99 -106.5t-121 -71t-141 -26q-68 0 -129 24t-107.5 79.5t-73.5 147
t-27 225.5q0 85 7.5 183.5t30 197.5t62.5 193.5t105 172.5t158.5 133t222.5 77z" />
    <glyph glyph-name="afii10066.salt" horiz-adv-x="1027" 
d="M417 64q77 0 150 43t130 131.5t91.5 225t35.5 323.5q-35 66 -99 107t-152 41q-63 0 -117.5 -21.5t-99 -59.5t-79 -90t-58 -112t-35.5 -126.5t-12 -133.5q0 -82 18.5 -143.5t51 -102.5t77 -61.5t98.5 -20.5zM1130 1415l-7 -55q-2 -17 -12 -23.5t-26 -6.5q-37 0 -85 2.5
t-101 5.5t-109.5 6.5t-111.5 5.5q61 -60 106.5 -120.5t74.5 -130t43.5 -151.5t14.5 -186q0 -190 -43 -334.5t-114 -242t-163.5 -147.5t-192.5 -50q-73 0 -133 27.5t-103 80t-66.5 128t-23.5 171.5q0 74 15 148.5t43.5 142t70 126t94.5 102t117.5 68t138.5 24.5
q91 0 160.5 -38t113.5 -111q-6 102 -28.5 176.5t-57 133t-78.5 106.5t-93 97l7 45h549z" />
    <glyph glyph-name="afii10067" unicode="&#x432;" horiz-adv-x="936" 
d="M172 455q-6 -45 -6 -89q-1 -66 15 -122.5t47.5 -97.5t78.5 -64t110 -23q61 1 116 23t96.5 59.5t66 87t24.5 104.5q0 44 -16 82t-52 62.5t-95.5 32t-146.5 -8.5zM387 558q115 21 184.5 49.5t107 61t50 66.5t12.5 67q0 23 -8 47.5t-27.5 45t-51.5 33.5t-80 13
q-76 0 -140 -34.5t-114.5 -93t-85.5 -135t-52 -161.5zM548 551q125 2 192.5 -55t67.5 -162q0 -69 -31.5 -132t-85.5 -111t-127 -76.5t-157 -28.5q-82 0 -144.5 28t-105 77.5t-64 117t-21.5 146.5q0 80 16.5 159.5t48 152t77 135t102.5 108.5t124.5 72t144.5 26q63 0 108 -17
t73.5 -44.5t41.5 -61.5t13 -68q0 -39 -13.5 -77t-45.5 -72.5t-84.5 -64.5t-129.5 -52z" />
    <glyph glyph-name="afii10068" unicode="&#x433;" horiz-adv-x="807" 
d="M459 1010q52 0 98.5 -12.5t81.5 -37t55.5 -60.5t20.5 -84q0 -50 -25 -93.5t-66 -82.5t-93.5 -74t-107.5 -69t-107.5 -67t-93.5 -68t-66 -72.5t-25 -79.5q0 -32 15.5 -59.5t43.5 -47t67 -30.5t85 -11q57 0 106 15t87 33.5t63.5 33.5t36.5 15q18 0 27 -17l19 -28
q-74 -60 -166 -93.5t-186 -33.5q-68 0 -122 17t-91.5 46.5t-57.5 68.5t-20 84q0 51 25 96t66.5 85t94 76t107.5 70t107.5 67t94 67t66.5 70t25 76q0 54 -47 89.5t-130 35.5q-53 0 -97.5 -14t-79 -30.5t-57.5 -31t-34 -15.5q-5 0 -10.5 2.5t-10.5 10.5l-19 37
q31 27 69.5 48.5t80.5 36.5t85 23t85 8z" />
    <glyph glyph-name="afii10098" unicode="&#x491;" horiz-adv-x="732" 
d="M738 928l1 -2h-182q-92 0 -147 -68t-80 -215l-69 -395q-45 -255 -242 -255q-30 0 -42.5 5.5t-11.5 17.5l7 52h28q66 0 110 44.5t61 138.5l68 389q16 91 42.5 158t64.5 111t89 65t116 21h120l46 205q6 27 18 39t33 12h35z" />
    <glyph glyph-name="afii10069" unicode="&#x434;" horiz-adv-x="1029" 
d="M417 64q77 0 150 43t130 131.5t91.5 225t35.5 323.5q-35 66 -99 107t-152 41q-63 0 -117.5 -21.5t-99 -59.5t-79 -90t-58 -112t-35.5 -126.5t-12 -133.5q0 -82 18.5 -143.5t51 -102.5t77 -61.5t98.5 -20.5zM277 1424q156 13 275.5 -19.5t200.5 -110.5t122.5 -203.5
t41.5 -298.5q0 -201 -43 -352t-114 -251.5t-163.5 -150.5t-192.5 -50q-73 0 -133 27.5t-103 80t-66.5 128t-23.5 171.5q0 74 15 148.5t43.5 142t70 126t94.5 102t117.5 68t138.5 24.5q91 0 160.5 -38t113.5 -111q-14 267 -145.5 390t-393.5 110q-25 0 -20 24z" />
    <glyph glyph-name="afii10072" unicode="&#x436;" horiz-adv-x="1729" 
d="M872 294q35 69 85 149t108 159.5t121 153t125.5 130t121 90t106.5 33.5q42 0 78.5 -12t77.5 -41l-22 -37q-5 -8 -11 -11.5t-12 -4.5t-16 3.5t-23.5 10.5t-31.5 11t-42 5q-59 0 -112.5 -47t-94.5 -128.5t-65 -190.5t-24 -233q0 -73 9 -124.5t26.5 -84t44 -47.5t61.5 -15
q36 0 63 11t46.5 24.5t32 24.5t19.5 12q14 2 22 -9l20 -36q-26 -29 -54.5 -48.5t-57 -31.5t-56 -17t-51.5 -5q-97 0 -152 75.5t-55 236.5q0 134 29 254t81 214q-54 -57 -111.5 -131t-113 -158.5t-105 -177t-85.5 -185.5l-12 -117h-82l72 708q-35 -70 -84.5 -150t-107.5 -160
t-121.5 -154t-126.5 -130.5t-121.5 -90.5t-106.5 -34q-42 0 -78.5 12t-77.5 41l22 37q10 16 22 16q7 1 16.5 -3.5t23.5 -10t32 -10.5t42 -5q59 0 112.5 47t94.5 128.5t65 190.5t24 233q0 73 -9 124.5t-26.5 84t-44 47.5t-61.5 15q-36 0 -63.5 -11t-47 -24.5t-32 -24.5
t-18.5 -12q-16 -2 -23 8l-19 36q26 30 54.5 49.5t57 31t56 16.5t51.5 5q97 0 152 -75t55 -237q0 -134 -29 -253t-81 -213q54 57 112.5 131t114 159.5t105 178.5t85.5 187l11 109h82z" />
    <glyph glyph-name="afii10073" unicode="&#x437;" horiz-adv-x="847" 
d="M136 874q25 29 60 54t78.5 43.5t93.5 29t104 10.5q72 0 123 -18.5t83.5 -49t47.5 -69t15 -78.5q0 -37 -12.5 -76t-40 -74t-72.5 -62.5t-110 -40.5q52 -8 91 -27.5t65 -49t39 -66t13 -78.5q0 -65 -28 -125t-80 -107t-126.5 -75t-167.5 -28q-51 0 -96.5 9.5t-85 25.5
t-71.5 37.5t-56 45.5l22 36q4 5 9.5 9.5t12.5 4.5q13 0 32.5 -15t50 -33t75.5 -33t109 -15q72 0 129.5 21t98 57.5t62.5 85t22 103.5q0 87 -62 134.5t-183 47.5q-30 0 -60.5 -2.5t-65.5 -6.5q0 19 1.5 37t8.5 37q28 -2 55 -3.5t56 -1.5q67 -2 119 14.5t87.5 45.5t54 68.5
t18.5 83.5q0 30 -10 58.5t-33.5 50.5t-61.5 35.5t-93 13.5q-71 0 -120 -16.5t-81.5 -36t-51 -36t-28.5 -17.5q-6 -1 -10 1t-10 10z" />
    <glyph glyph-name="afii10074" unicode="&#x438;" horiz-adv-x="1032" 
d="M925 995l-120 -995h-44q-19 0 -27.5 10t-8.5 27l30 283q-41 -79 -90 -141t-103.5 -104.5t-113 -65t-116.5 -22.5q-128 0 -183 98.5t-33 276.5l75 633h94l-75 -633q-17 -143 19 -219.5t135 -76.5q55 0 111.5 28t109.5 80.5t100 126t83 165.5l63 529h94z" />
    <glyph glyph-name="afii10076" unicode="&#x43a;" horiz-adv-x="904" 
d="M672 877q42 58 83 89.5t100 31.5h42l-9 -48q-3 -14 -16 -18.5t-31 -10t-39.5 -17t-42.5 -40.5l-194 -249q-14 -19 -27 -33.5t-28 -25.5t-32.5 -19t-39.5 -13q50 -10 83.5 -39t56.5 -77l218 -408h-54q-25 0 -38.5 8.5t-21.5 24.5l-193 354q-21 42 -55.5 69.5t-81.5 27.5
l-124 -21l-56 -463h-91l120 995h91l-56 -467l119 22q42 8 69 25t52 49z" />
    <glyph glyph-name="afii10077" unicode="&#x43b;" horiz-adv-x="1058" 
d="M299 523q34 128 77.5 218t105.5 146.5t147 82t203 25.5h121l-122 -995h-91l112 922h-38q-92 0 -158.5 -21.5t-115.5 -69.5t-84.5 -124.5t-65.5 -187.5q-38 -150 -75.5 -251.5t-79.5 -164t-90.5 -89t-108.5 -26.5q-30 0 -42.5 5.5t-11.5 17.5l7 52h33q49 0 86 25.5
t68.5 81t60.5 142.5t62 211z" />
    <glyph glyph-name="afii10106" unicode="&#x459;" horiz-adv-x="1570" 
d="M879 202q-4 -31 6 -57.5t32 -46t56 -31t79 -11.5q64 0 125 30t107.5 79.5t75 113t28.5 130.5q0 36 -8.5 69t-27.5 58.5t-50 40.5t-75 15q-56 0 -113.5 -29t-105.5 -76t-82 -106t-41 -120zM906 434q29 47 68.5 88.5t85 72t95 48.5t98.5 18q55 0 96.5 -18t70 -50.5
t43 -76.5t14.5 -95q0 -85 -37.5 -163.5t-99.5 -138.5t-143.5 -96t-169.5 -36q-65 0 -112.5 17t-78 46.5t-43 70t-6.5 87.5l87 714h-40q-92 0 -161.5 -21.5t-122.5 -69.5t-91.5 -124.5t-68.5 -187.5q-38 -150 -75.5 -251.5t-79.5 -164t-90.5 -89t-108.5 -26.5
q-30 0 -42.5 5.5t-11.5 17.5l7 52h33q49 0 86 25.5t68.5 81t60.5 142.5t62 211q34 128 80.5 218t112.5 146.5t154 82t206 25.5h123z" />
    <glyph glyph-name="afii10078" unicode="&#x43c;" horiz-adv-x="1354" 
d="M1249 1000l-123 -1000h-85l101 816q3 26 11 56l-501 -813q-6 -9 -13.5 -15t-17.5 -6h-14q-9 0 -15 6t-10 15l-266 816q-2 -16 -4 -33t-5 -30q-37 -208 -81.5 -400.5t-105.5 -379.5q-5 -14 -16 -23t-28 -9h-53q40 125 74.5 243t64 239t55.5 248t51 270h69q10 0 19 -3.5
t14 -17.5l257 -766q8 -26 13 -50q7 17 20 39l479 777q8 13 17.5 17t19.5 4h73z" />
    <glyph glyph-name="afii10079" unicode="&#x43d;" horiz-adv-x="1026" 
d="M920 995l-120 -995h-94l59 490h-531l-59 -490h-94l120 995h94l-52 -434h531l52 434h94z" />
    <glyph glyph-name="afii10107" unicode="&#x45a;" horiz-adv-x="1512" 
d="M821 202q-4 -31 6 -57.5t32 -46t56 -31t79 -11.5q64 0 125 30t107.5 79.5t75 113t28.5 130.5q0 36 -8.5 69t-27.5 58.5t-50 40.5t-75 15q-56 0 -113.5 -29t-105.5 -76t-82 -106t-41 -120zM848 434q29 47 68.5 88.5t85 72t95 48.5t98.5 18q55 0 96.5 -18t70 -50.5
t43 -76.5t14.5 -95q0 -85 -37.5 -163.5t-99.5 -138.5t-143.5 -96t-169.5 -36q-65 0 -112.5 17t-78 46.5t-43 70t-6.5 87.5l35 289h-529l-60 -497h-94l120 995h94l-51 -426h529l52 426h92z" />
    <glyph glyph-name="afii10195" unicode="&#x473;" horiz-adv-x="1026" 
d="M173 467q-3 -36 -3 -72q0 -161 71.5 -249.5t199.5 -88.5q73 0 135.5 32.5t111 88.5t82 130.5t48.5 158.5h-645zM827 531q2 18 3 36.5t1 36.5q0 160 -71 247.5t-199 87.5q-74 0 -136.5 -32.5t-111 -88t-82 -129.5t-49.5 -158h645zM569 1010q80 0 145.5 -28.5t112 -81
t72 -128t25.5 -169.5q0 -121 -36.5 -232t-101.5 -196.5t-155 -136.5t-198 -51q-80 0 -145.5 28t-112 81t-72 128.5t-25.5 171.5q0 121 36 232t101.5 196t155.5 135.5t198 50.5z" />
    <glyph glyph-name="afii10081" unicode="&#x43f;" horiz-adv-x="1032" 
d="M251 675q40 79 89.5 141.5t104.5 105.5t113 65.5t117 22.5q64 0 109.5 -25t73 -73t36 -117.5t-2.5 -158.5l-75 -636h-94l75 636q17 142 -19 218t-135 76q-56 0 -112.5 -28.5t-110 -81t-100.5 -127t-83 -167.5l-61 -526h-94l119 998h43q35 0 35 -36z" />
    <glyph glyph-name="afii10084" unicode="&#x442;" horiz-adv-x="1560" 
d="M81 0l120 998h43q35 0 35 -36l-28 -278q78 155 180 240.5t215 85.5q58 0 96 -21t59 -61.5t27 -99.5t0 -135q39 80 85.5 139.5t98 99t105.5 59t107 19.5q65 0 107.5 -25t65.5 -73t27.5 -117.5t-6.5 -158.5l-75 -636h-93l75 636q9 71 7.5 126t-16 92.5t-44 56.5t-78.5 19
t-99.5 -22.5t-99 -67.5t-92 -113t-78.5 -160l-67 -567h-93l75 636q9 71 9 126t-13 92.5t-41.5 56.5t-77.5 19q-114 0 -210.5 -104t-169.5 -294l-63 -532h-93z" />
    <glyph glyph-name="afii10196" unicode="&#x475;" horiz-adv-x="971" 
d="M739 861q20 46 42 74t46 43.5t49 20.5t50 5q31 0 42.5 -5.5t10.5 -10.5l-7 -52h-25q-43 0 -72.5 -21t-52.5 -69l-400 -846h-82l-256 995h73q14 0 21.5 -7.5t9.5 -16.5l195 -789q9 -39 12 -76q7 19 14 37.5t15 38.5z" />
    <glyph glyph-name="afii10086" unicode="&#x444;" horiz-adv-x="1415" 
d="M696 118q32 -31 72 -44.5t83 -13.5q60 0 110.5 24t92 66t72.5 98.5t52.5 121.5t32 135t10.5 139q0 80 -15 135.5t-42 89.5t-64.5 49t-81.5 15q-35 0 -71 -9t-68.5 -25.5t-58.5 -40.5t-42 -54zM695 877q-32 32 -72.5 45.5t-83.5 13.5q-60 0 -110.5 -24t-92 -66
t-72.5 -98.5t-52.5 -121.5t-32 -135t-10.5 -139q0 -80 15 -135t42 -89t64.5 -49t81.5 -15q35 0 71.5 9t68.5 25.5t58.5 40.5t41.5 54zM789 894q45 54 113 85t147 31q59 0 108 -20.5t84 -64t54.5 -111.5t19.5 -162q0 -81 -14 -161.5t-40.5 -154.5t-65.5 -137.5t-89 -110.5
t-110.5 -74t-130.5 -27q-58 0 -102.5 21t-73.5 52l-45 -369q-3 -20 -17.5 -33t-37.5 -13h-43l55 458q-45 -54 -113 -85t-147 -31q-59 0 -107.5 20.5t-83.5 64t-54.5 111.5t-19.5 162q0 81 14 161.5t40.5 154t65.5 137.5t88.5 111t110 74t130.5 27q58 0 103 -21t74 -53
l57 473q3 20 17.5 33t37.5 13h43z" />
    <glyph glyph-name="afii10088" unicode="&#x446;" horiz-adv-x="1081" 
d="M980 71l-93 -395q-2 -15 -10.5 -23t-22.5 -8h-53l88 355h-128q-19 0 -27.5 10t-8.5 27l30 283q-41 -79 -90 -141t-103.5 -104.5t-113 -65t-116.5 -22.5q-128 0 -183 98.5t-33 276.5l75 633h94l-75 -633q-17 -143 19 -219.5t135 -76.5q55 0 111.5 28t109.5 80.5t100 126
t83 165.5l63 529h94l-111 -924h166z" />
    <glyph glyph-name="afii10193" unicode="&#x45f;" horiz-adv-x="1032" 
d="M925 995l-120 -995h-44q-19 0 -27.5 10t-8.5 27l30 283q-65 -125 -149 -206t-176 -111l-40 -327q-2 -15 -10.5 -23t-22.5 -8h-54l42 342h-13q-128 0 -183 98.5t-33 276.5l75 633h94l-75 -633q-17 -143 19 -219.5t135 -76.5q55 0 111.5 28t109.5 80.5t100 126t83 165.5
l63 529h94z" />
    <glyph glyph-name="afii10089" unicode="&#x447;" horiz-adv-x="921" 
d="M814 995l-120 -995h-94l65 539q-30 -45 -68 -84t-83.5 -68.5t-97 -46t-107.5 -16.5q-65 0 -109.5 23.5t-70 65.5t-33 99.5t0.5 125.5l41 357h94l-41 -357q-6 -50 -1 -92.5t23 -74t50 -49.5t81 -18q55 0 105.5 19.5t94 54t78 81.5t58.5 101l40 335h94z" />
    <glyph glyph-name="afii10090" unicode="&#x448;" horiz-adv-x="1560" 
d="M1453 995l-120 -995h-43q-18 0 -26.5 9.5t-8.5 26.5l27 278q-39 -77 -84 -138t-95.5 -103t-104.5 -64t-110 -22q-58 0 -96 21.5t-59 62t-27 99.5t0 134q-39 -80 -85.5 -139.5t-98 -99t-105.5 -59t-107 -19.5q-65 0 -107.5 25.5t-65.5 73.5t-27.5 117.5t6.5 158.5l75 633
h93l-75 -633q-9 -71 -7.5 -126.5t16 -93t44 -57t78.5 -19.5t99.5 22.5t99 68t92 114t78.5 160.5l67 564h93l-75 -633q-9 -71 -9 -126.5t13 -93t41.5 -57t77.5 -19.5q57 0 109.5 27t100.5 78t91 125.5t79 169.5l63 529h93z" />
    <glyph glyph-name="afii10091" unicode="&#x449;" horiz-adv-x="1603" 
d="M1496 71l-93 -395q-2 -15 -10.5 -23t-22.5 -8h-54l88 355h-114q-18 0 -26.5 9.5t-8.5 26.5l27 278q-39 -77 -84 -138t-95.5 -103t-104.5 -64t-110 -22q-58 0 -96 21.5t-59 62t-27 99.5t0 134q-39 -80 -85.5 -139.5t-98 -99t-105.5 -59t-107 -19.5q-65 0 -107.5 25.5
t-65.5 73.5t-27.5 117.5t6.5 158.5l75 633h93l-75 -633q-9 -71 -7.5 -126.5t16 -93t44 -57t78.5 -19.5t99.5 22.5t99 68t92 114t78.5 160.5l67 564h93l-75 -633q-9 -71 -9 -126.5t13 -93t41.5 -57t77.5 -19.5q57 0 109.5 27t100.5 78t91 125.5t79 169.5l63 529h93l-111 -924
h154z" />
    <glyph glyph-name="afii10092" unicode="&#x44a;" horiz-adv-x="997" 
d="M491 56q62 0 120 28.5t103 76.5t72.5 111t27.5 133q0 37 -8.5 71t-27.5 60t-50 41t-75 15q-59 0 -121 -27.5t-112.5 -73t-83 -105.5t-32.5 -125q0 -50 14 -88.5t38.5 -64.5t59 -39t75.5 -13zM526 946q-50 -62 -87 -127t-62 -130t-40 -129.5t-22 -125.5q30 51 71.5 92.5
t90 71.5t101 46.5t103.5 16.5q54 0 95.5 -18.5t69.5 -51t42.5 -77t14.5 -97.5q0 -80 -32.5 -157.5t-89.5 -138t-134.5 -97.5t-167.5 -37q-59 0 -108 18t-84.5 58t-55.5 102.5t-20 151.5q0 69 12.5 143.5t39 151.5t68 155.5t99.5 155.5h-362l5 33q2 17 13.5 28t33.5 11h413z
" />
    <glyph glyph-name="afii10093" unicode="&#x44b;" horiz-adv-x="1230" 
d="M1123 995l-120 -995h-94l120 995h94zM191 202q-4 -31 6 -57.5t32 -46t56 -31t79 -11.5q64 0 125 30t107.5 79.5t75 113t28.5 130.5q0 36 -8.5 69t-27.5 58.5t-50 40.5t-75 15q-56 0 -113.5 -29t-105.5 -76t-82 -106t-41 -120zM218 434q29 47 68.5 88.5t85 72t95 48.5
t98.5 18q55 0 96.5 -18t70 -50.5t43 -76.5t14.5 -95q0 -85 -37.5 -163.5t-99.5 -138.5t-143.5 -96t-169.5 -36q-65 0 -112.5 17t-78 46.5t-43 70t-6.5 87.5l96 787h92z" />
    <glyph glyph-name="afii10094" unicode="&#x44c;" horiz-adv-x="882" 
d="M191 202q-4 -31 6 -57.5t32 -46t56 -31t79 -11.5q64 0 125 30t107.5 79.5t75 113t28.5 130.5q0 36 -8.5 69t-27.5 58.5t-50 40.5t-75 15q-56 0 -113.5 -29t-105.5 -76t-82 -106t-41 -120zM218 434q29 47 68.5 88.5t85 72t95 48.5t98.5 18q55 0 96.5 -18t70 -50.5
t43 -76.5t14.5 -95q0 -85 -37.5 -163.5t-99.5 -138.5t-143.5 -96t-169.5 -36q-65 0 -112.5 17t-78 46.5t-43 70t-6.5 87.5l96 787h92z" />
    <glyph glyph-name="afii10095" unicode="&#x44d;" horiz-adv-x="912" 
d="M106 892q40 31 78 53.5t76 37t78 21.5t86 7q96 0 168 -33.5t119.5 -93t71 -140t23.5 -174.5q0 -77 -15.5 -150t-44.5 -138t-71 -119t-95.5 -93t-117.5 -61t-137 -22q-97 0 -170.5 36t-119.5 99l25 30q9 11 22 11q8 0 24.5 -16t45.5 -35t71.5 -35t102.5 -16
q79 0 144.5 32.5t114.5 89t80 131.5t42 161h-498l8 67h496v24q0 79 -18 147t-55.5 118t-94 78t-133.5 28q-63 0 -108 -15t-76.5 -32.5t-51 -32t-32.5 -13.5q-11 1 -15.5 5t-8.5 10z" />
    <glyph glyph-name="afii10101" unicode="&#x454;" horiz-adv-x="916" 
d="M801 182q-53 -59 -100.5 -97t-93 -60t-92.5 -30t-100 -8q-86 0 -149.5 29.5t-105.5 82.5t-63 126t-21 159q0 79 16.5 156.5t47.5 147.5t75 129t99 102t119.5 67.5t137.5 24.5q49 0 88.5 -9.5t72.5 -27t60 -42.5t50 -56l-25 -31q-4 -4 -9.5 -7t-12.5 -3q-10 0 -24 16
t-38.5 34.5t-63.5 34.5t-99 16q-71 0 -133 -30.5t-111.5 -84t-85.5 -125.5t-54 -154h483l-7 -67h-488q-2 -22 -3.5 -44t-1.5 -45q0 -69 15.5 -129t48 -103.5t82.5 -68.5t119 -25q53 0 95.5 11.5t75 29t57 37.5t43 37.5t32 29t24.5 11.5q12 0 21 -10l19 -24v0z" />
    <glyph glyph-name="afii10096" unicode="&#x44e;" horiz-adv-x="1358" 
d="M805 62q80 0 145.5 46.5t112 123t72 175t25.5 202.5q0 156 -63 240.5t-176 84.5q-80 0 -145 -45.5t-112 -121.5t-72.5 -174t-25.5 -204q1 -155 63 -241t176 -86zM488 533q17 99 56 186t97 151.5t131.5 102t159.5 37.5q73 0 132.5 -28t102 -79.5t65.5 -126t23 -167.5
q0 -122 -34 -234t-95.5 -198.5t-146 -138t-185.5 -51.5q-72 0 -131 27.5t-100.5 79.5t-64 127t-22.5 169q0 38 3 74h-250l-57 -464h-92l122 995h93l-57 -462h250z" />
    <glyph glyph-name="afii10097" unicode="&#x44f;" horiz-adv-x="968" 
d="M767 931h-251q-72 0 -122 -21.5t-80.5 -55t-44 -74t-13.5 -78.5q0 -43 16 -78.5t46 -61t74 -39.5t100 -14h223zM862 995l-122 -995h-87l55 448h-171q-30 0 -53.5 -5.5t-41.5 -17t-32.5 -27.5t-27.5 -37l-171 -265q-36 -59 -80.5 -82t-102.5 -23q-34 0 -47 5.5t-11 17.5
l6 49h34q40 0 72.5 17.5t59.5 58.5l159 239q20 31 47.5 53t67.5 34q-68 7 -115.5 28.5t-77.5 54t-43.5 72.5t-13.5 84q0 51 19.5 103t61.5 93.5t108.5 68t160.5 26.5h346z" />
    <glyph glyph-name="afii10099" unicode="&#x452;" horiz-adv-x="1008" 
d="M254 670q39 57 84 105t94 83.5t101.5 55.5t106.5 20q64 0 110.5 -25t76.5 -69.5t44.5 -107t14.5 -137.5q0 -121 -24.5 -236.5t-72 -230t-117.5 -230.5t-161 -238l-71 33q85 119 151 231t111 221t68 217t23 219q0 62 -11.5 113.5t-34.5 88t-58 57t-83 20.5q-47 0 -96 -24
t-96.5 -64.5t-91.5 -95.5t-81 -116l-69 -560h-92l138 1125h-186l8 74h187l31 256h93l-31 -256h359l-8 -74h-361z" />
    <glyph glyph-name="afii10194" unicode="&#x463;" horiz-adv-x="1030" 
d="M334 202q-4 -31 6 -57.5t32 -46t56 -31t79 -11.5q64 0 125 30t107.5 79.5t75 113t28.5 130.5q0 36 -8.5 69t-27.5 58.5t-50 40.5t-75 15q-56 0 -113.5 -29t-105.5 -76t-82 -106t-41 -120zM361 434q29 47 68.5 88.5t85 72t95 48.5t98.5 18q55 0 96.5 -18t70 -50.5
t43 -76.5t14.5 -95q0 -85 -37.5 -163.5t-99.5 -138.5t-143.5 -96t-169.5 -36q-65 0 -112.5 17t-78 46.5t-43 70t-6.5 87.5l87 715h-263l9 72h264l37 305h92l-37 -305h306l-9 -72h-306l-26 -211h-1z" />
    <glyph glyph-name="glyph304" 
d="M505 1223q84 0 126 45.5t53 146.5h49q11 0 16 -9.5t3 -23.5q-11 -96 -75 -154t-178 -58t-164.5 58t-39.5 154q2 14 8.5 23.5t17.5 9.5h50q-12 -101 20 -146.5t114 -45.5z" />
    <glyph glyph-name="glyph305" 
d="M501 1183q57 0 84.5 30.5t35.5 99.5h44q10 0 14 -8t2 -19q-8 -69 -55.5 -109.5t-130.5 -40.5t-121.5 40.5t-29.5 109.5q1 11 6.5 19t14.5 8h45q-8 -69 13 -99.5t78 -30.5z" />
    <glyph glyph-name="glyph306" 
d="M545 1573q84 0 125.5 45t52.5 146h49q11 0 16.5 -9.5t3.5 -23.5q-11 -97 -74.5 -152t-178.5 -55q-114 0 -165 55t-39 152q2 14 8 23.5t17 9.5h49q-11 -101 21 -146t115 -45z" />
    <glyph glyph-name="exclam" unicode="!" horiz-adv-x="474" 
d="M378 1415l-70 -572q-6 -45 -12 -85t-13 -81.5t-15.5 -87.5t-18.5 -102h-62q4 56 7 102t6.5 87.5t7.5 81.5t9 85l70 572h91zM89 77q0 19 7 36t19.5 29.5t29 20t36.5 7.5q19 0 36 -7.5t29.5 -20t20 -29.5t7.5 -36q0 -20 -7.5 -36.5t-20 -29t-29.5 -19.5t-36 -7
q-39 0 -65.5 26.5t-26.5 65.5z" />
    <glyph glyph-name="question" unicode="?" horiz-adv-x="808" 
d="M167 1290q29 27 63.5 52.5t75 45t86.5 31.5t98 12q61 0 112.5 -19t89 -54t58.5 -83.5t21 -107.5q0 -83 -24.5 -142t-62 -103t-82.5 -76.5t-85.5 -62.5t-70.5 -61t-38 -71l-32 -164h-64l17 170q4 44 31.5 78.5t67 65.5t84.5 62.5t83 71.5t63.5 92t25.5 124q0 47 -16 84.5
t-44.5 64t-67 40.5t-82.5 14q-62 0 -108 -17.5t-78 -38.5t-52 -38.5t-30 -17.5q-6 0 -10 2t-9 10zM228 77q0 19 7 36t19.5 29.5t29 20t36.5 7.5q19 0 36.5 -7.5t30 -20t20 -29.5t7.5 -36q0 -39 -27.5 -65.5t-66.5 -26.5t-65.5 26.5t-26.5 65.5z" />
    <glyph glyph-name="uni203D" unicode="&#x203d;" horiz-adv-x="856" 
d="M298 170q19 0 36 -7.5t29.5 -20t20 -29.5t7.5 -36q0 -20 -7.5 -36.5t-20 -29t-29.5 -19.5t-36 -7q-39 0 -65.5 26.5t-26.5 65.5q0 19 7 36t19.5 29.5t29 20t36.5 7.5zM424 1379q28 10 61 15t67 5q62 0 113 -17.5t87 -50.5t56 -79.5t20 -104.5q0 -63 -16.5 -112.5
t-43.5 -89t-62.5 -71.5t-73.5 -61t-75.5 -57.5t-69.5 -60.5t-55 -70t-32 -86l-19 -84h-58q-10 69 -19 153.5t-20 164.5l-80 630l89 21l62 -555q1 -11 3.5 -36.5t5 -58.5t4.5 -69.5t4 -69.5q23 54 59.5 95t77.5 75.5t82.5 67.5t75 70.5t54.5 83.5t21 108q0 86 -55.5 137
t-150.5 51q-35 0 -55.5 -5t-28.5 -5q-21 0 -22 17z" />
    <glyph glyph-name="comma" unicode="," horiz-adv-x="424" 
d="M69 -238q-5 4 -6 8.5t-1 9.5q0 8 15.5 26.5t35.5 47t38 65.5t23 82q-15 -5 -31 -5q-37 0 -60.5 25t-23.5 64q0 35 24 60t63 25q43 0 66.5 -29.5t23.5 -77.5q0 -41 -10.5 -83.5t-30.5 -83.5t-48 -79t-62 -70z" />
    <glyph glyph-name="semicolon" unicode=";" horiz-adv-x="493" 
d="M108 -238q-5 4 -6 8.5t-1 9.5q0 8 15.5 26.5t35.5 47t38 65.5t23 82q-15 -5 -31 -5q-37 0 -60.5 25t-23.5 64q0 35 24 60t63 25q43 0 66.5 -29.5t23.5 -77.5q0 -41 -10.5 -83.5t-30.5 -83.5t-48 -79t-62 -70zM182 874q0 19 7 36t19.5 29.5t29 20t36.5 7.5q19 0 36 -7.5
t29.5 -20t20 -29.5t7.5 -36q0 -20 -7.5 -36.5t-20 -29t-29.5 -19.5t-36 -7q-39 0 -65.5 26.5t-26.5 65.5z" />
    <glyph glyph-name="period" unicode="." horiz-adv-x="459" 
d="M76 77q0 19 7 36t19.5 29.5t29 20t36.5 7.5q19 0 36 -7.5t29.5 -20t20 -29.5t7.5 -36q0 -20 -7.5 -36.5t-20 -29t-29.5 -19.5t-36 -7q-39 0 -65.5 26.5t-26.5 65.5z" />
    <glyph glyph-name="ellipsis" unicode="&#x2026;" horiz-adv-x="1440" 
d="M76 77q0 19 7 36t19.5 29.5t29 20t36.5 7.5q19 0 36 -7.5t29.5 -20t20 -29.5t7.5 -36q0 -20 -7.5 -36.5t-20 -29t-29.5 -19.5t-36 -7q-39 0 -65.5 26.5t-26.5 65.5zM566 77q0 19 7 36t19.5 29.5t29 20t36.5 7.5q19 0 36.5 -7.5t30 -20t20 -29.5t7.5 -36
q0 -39 -27.5 -65.5t-66.5 -26.5t-65.5 26.5t-26.5 65.5zM1057 77q0 19 7 36t19.5 29.5t29 20t36.5 7.5q19 0 36 -7.5t29.5 -20t20 -29.5t7.5 -36q0 -20 -7.5 -36.5t-20 -29t-29.5 -19.5t-36 -7q-39 0 -65.5 26.5t-26.5 65.5z" />
    <glyph glyph-name="quoteleft" unicode="&#x2018;" horiz-adv-x="391" 
d="M218 1059q-24 58 -23 116t21.5 113t57.5 105.5t85 93.5l23 -16q6 -5 6 -12q0 -5 -2.5 -10t-10.5 -13q-28 -33 -50.5 -71.5t-35.5 -79.5t-12.5 -83.5t18.5 -84.5q5 -10 1 -19t-16 -14z" />
    <glyph glyph-name="quoteright" unicode="&#x2019;" horiz-adv-x="399" 
d="M349 1475q24 -58 23 -116t-21.5 -113t-57.5 -105.5t-85 -93.5l-23 16q-7 5 -7 12q0 5 3 9.5t11 13.5q28 33 50.5 71.5t35 79.5t12.5 83.5t-18 84.5q-10 22 15 33z" />
    <glyph glyph-name="quotedblleft" unicode="&#x201c;" horiz-adv-x="639" 
d="M218 1059q-24 58 -23 116t21.5 113t57.5 105.5t85 93.5l23 -16q6 -5 6 -12q0 -5 -2.5 -10t-10.5 -13q-28 -33 -50.5 -71.5t-35.5 -79.5t-12.5 -83.5t18.5 -84.5q5 -10 1 -19t-16 -14zM466 1059q-24 58 -23 116t21.5 113t57.5 105.5t85 93.5l23 -16q6 -5 6 -12
q0 -5 -2.5 -10t-10.5 -13q-28 -33 -50.5 -71.5t-35.5 -79.5t-12.5 -83.5t18.5 -84.5q5 -10 1 -19t-16 -14z" />
    <glyph glyph-name="quotedblright" unicode="&#x201d;" horiz-adv-x="645" 
d="M349 1475q24 -58 23 -116t-21.5 -113t-57.5 -105.5t-85 -93.5l-23 16q-7 5 -7 12q0 5 3 9.5t11 13.5q28 33 50.5 71.5t35 79.5t12.5 83.5t-18 84.5q-10 22 15 33zM597 1475q24 -58 23 -116t-21.5 -113t-57.5 -105.5t-85 -93.5l-23 16q-7 5 -7 12q0 5 3 9.5t11 13.5
q28 33 50.5 71.5t35 79.5t12.5 83.5t-18 84.5q-10 22 15 33z" />
    <glyph glyph-name="quotesinglbase" unicode="&#x201a;" horiz-adv-x="384" 
d="M170 174q24 -58 23 -116t-21.5 -113t-57.5 -105.5t-85 -93.5l-23 16q-7 5 -7 12q0 5 3 9.5t11 13.5q28 33 50.5 71.5t35 79.5t12.5 83.5t-18 84.5q-10 22 15 33z" />
    <glyph glyph-name="quotedblbase" unicode="&#x201e;" horiz-adv-x="632" 
d="M170 174q24 -58 23 -116t-21.5 -113t-57.5 -105.5t-85 -93.5l-23 16q-7 5 -7 12q0 5 3 9.5t11 13.5q28 33 50.5 71.5t35 79.5t12.5 83.5t-18 84.5q-10 22 15 33zM418 174q24 -58 23 -116t-21.5 -113t-57.5 -105.5t-85 -93.5l-23 16q-7 5 -7 12q0 5 3 9.5t11 13.5
q28 33 50.5 71.5t35 79.5t12.5 83.5t-18 84.5q-10 22 15 33z" />
    <glyph glyph-name="guilsinglleft" unicode="&#x2039;" horiz-adv-x="500" 
d="M190 547q-15 -21 -25 -28q9 -8 18 -28l131 -295q7 -16 3 -28t-17 -19l-32 -15l-176 379l1 12l270 378l27 -14q11 -7 12.5 -19.5t-9.5 -27.5z" />
    <glyph glyph-name="guilsinglright" unicode="&#x203a;" horiz-adv-x="498" 
d="M386 525l-1 -12l-268 -379l-28 15q-26 14 -4 47l204 295q13 20 24 28q-9 8 -18 28l-131 295q-7 15 -2.5 27.5t18.5 19.5l30 14z" />
    <glyph glyph-name="guillemotleft" unicode="&#xab;" horiz-adv-x="733" 
d="M189 547q-15 -21 -25 -28q9 -8 18 -28l131 -295q7 -16 3 -28t-17 -19l-32 -15l-176 379l1 12l270 378l27 -14q11 -7 12.5 -19.5t-9.5 -27.5zM423 547q-15 -21 -25 -28q9 -8 18 -28l131 -295q7 -16 3 -28t-17 -19l-32 -15l-176 379l1 12l270 378l27 -14q11 -7 12.5 -19.5
t-9.5 -27.5z" />
    <glyph glyph-name="guillemotright" unicode="&#xbb;" horiz-adv-x="733" 
d="M387 525l-1 -12l-268 -379l-28 15q-26 14 -4 47l204 295q13 20 24 28q-9 8 -18 28l-131 295q-7 15 -2.5 27.5t18.5 19.5l30 14zM621 525l-1 -12l-268 -379l-28 15q-26 14 -4 47l204 295q13 20 24 28q-9 8 -18 28l-131 295q-7 15 -2.5 27.5t18.5 19.5l30 14z" />
    <glyph glyph-name="slash" unicode="/" horiz-adv-x="809" 
d="M87 -47q-9 -19 -25.5 -28t-32.5 -9h-38l751 1493q17 36 56 36h39z" />
    <glyph glyph-name="bar" unicode="|" horiz-adv-x="490" 
d="M205 1517h75v-1869h-75v1869z" />
    <glyph glyph-name="brokenbar" unicode="&#xa6;" horiz-adv-x="490" 
d="M205 1517h75v-778h-75v778zM205 425h75v-777h-75v777z" />
    <glyph glyph-name="backslash" unicode="\" horiz-adv-x="800" 
d="M175 1445h39q39 0 48 -36l384 -1493h-38q-16 0 -30.5 9t-19.5 28z" />
    <glyph glyph-name="hyphen" unicode="-" horiz-adv-x="712" 
d="M145 632h428l-9 -78h-430z" />
    <glyph glyph-name="hyphen" unicode="&#x2010;" horiz-adv-x="712" 
d="M145 632h428l-9 -78h-430z" />
    <glyph glyph-name="hyphen" unicode="&#xad;" horiz-adv-x="712" 
d="M145 632h428l-9 -78h-430z" />
    <glyph glyph-name="endash" unicode="&#x2013;" horiz-adv-x="1160" 
d="M217 612h725l-8 -69h-725z" />
    <glyph glyph-name="emdash" unicode="&#x2014;" horiz-adv-x="1472" 
d="M139 612h1195l-10 -69h-1193z" />
    <glyph glyph-name="underscore" unicode="_" horiz-adv-x="887" 
d="M707 -207l-9 -65h-724l7 65h726z" />
    <glyph glyph-name="bullet" unicode="&#x2022;" horiz-adv-x="1160" 
d="M284 596q0 61 23 115t63 94.5t93 63.5t113 23q61 0 115 -23t94 -63.5t63 -94.5t23 -115q0 -60 -23 -112.5t-63 -92.5t-94 -63t-115 -23q-60 0 -113 23t-93 63t-63 92.5t-23 112.5z" />
    <glyph glyph-name="periodcentered" unicode="&#xb7;" horiz-adv-x="471" 
d="M132 592q0 21 8 40t21.5 33t32 22t38.5 8q21 0 40 -8t33 -22t22 -33t8 -40q0 -20 -8 -38.5t-22 -32t-33 -21.5t-40 -8q-20 0 -38.5 8t-32 21.5t-21.5 32t-8 38.5z" />
    <glyph glyph-name="periodcentered" unicode="&#x2219;" horiz-adv-x="471" 
d="M132 592q0 21 8 40t21.5 33t32 22t38.5 8q21 0 40 -8t33 -22t22 -33t8 -40q0 -20 -8 -38.5t-22 -32t-33 -21.5t-40 -8q-20 0 -38.5 8t-32 21.5t-21.5 32t-8 38.5z" />
    <glyph glyph-name="parenleft" unicode="(" horiz-adv-x="497" 
d="M189 450q0 -79 8 -163t24.5 -167.5t41 -164t57.5 -152.5q8 -17 2.5 -27t-14.5 -15l-43 -25q-42 88 -72.5 179t-49.5 180.5t-28 176t-9 166.5q0 86 5 168.5t20 165.5t41 168.5t68 177.5t102 192.5t142 214.5l39 -25q7 -5 9.5 -15t-8.5 -27q-83 -119 -145.5 -233
t-104.5 -234t-63.5 -252.5t-21.5 -288.5z" />
    <glyph glyph-name="parenright" unicode=")" horiz-adv-x="497" 
d="M316 811q0 79 -8.5 163t-25.5 167.5t-41.5 164t-57.5 152.5q-7 17 -2 27t14 15l45 25q42 -89 72 -179.5t49 -179.5t28 -175.5t9 -167.5q0 -86 -5 -168.5t-19.5 -165.5t-41 -168.5t-68.5 -177.5t-102 -192.5t-142 -214.5l-38 25q-8 5 -10 15t9 27q82 119 145 238
t105 242.5t63.5 254t21.5 273.5z" />
    <glyph glyph-name="bracketleft" unicode="[" horiz-adv-x="559" 
d="M599 1481q-2 -12 -10.5 -19.5t-21.5 -7.5h-188l-204 -1654h189q13 0 20 -8t5 -20l-5 -35h-294l218 1779h294z" />
    <glyph glyph-name="bracketright" unicode="]" horiz-adv-x="562" 
d="M259 -263h-295l4 35q2 12 10.5 20t22.5 8h188l202 1654h-187q-14 0 -21 7.5t-5 19.5l4 35h296z" />
    <glyph glyph-name="braceleft" unicode="{" horiz-adv-x="554" 
d="M594 1516l-4 -40q-2 -11 -11 -16.5t-17 -5.5h-29q-43 0 -80 -17.5t-65 -51.5t-44.5 -84.5t-17.5 -115.5q-2 -41 -0.5 -83t3.5 -83.5t4 -82t1 -77.5q-1 -52 -15.5 -92.5t-38 -69t-52 -46.5t-58.5 -25q24 -6 45 -19.5t36.5 -34t25 -47t9.5 -58.5q0 -61 -17 -120
t-37.5 -118.5t-37.5 -121t-17 -126.5q0 -41 11 -74t30.5 -57t47.5 -37t63 -13h31q8 0 15.5 -6t5.5 -17l-5 -40h-51q-56 0 -98.5 18.5t-71.5 51.5t-44 77.5t-15 96.5q0 68 17.5 129.5t38.5 120t38.5 116.5t17.5 120q0 57 -34 93.5t-91 36.5l7 59q74 0 120 58t46 177
q0 60 -7 129.5t-7 129.5q0 85 21.5 152.5t60.5 115t94.5 73t124.5 25.5h51z" />
    <glyph glyph-name="braceright" unicode="}" horiz-adv-x="555" 
d="M237 1516q55 0 97.5 -18.5t71.5 -51.5t44 -77.5t15 -96.5q0 -68 -17 -129.5t-38 -120t-38 -116.5t-17 -120q0 -57 33 -93.5t92 -36.5l-8 -59q-73 0 -119.5 -58t-46.5 -177q0 -29 2 -62t4.5 -67t4.5 -67t2 -63q0 -85 -21.5 -152.5t-60.5 -115t-94.5 -73t-124.5 -25.5h-51
l6 40q1 11 9.5 17t16.5 6h30q42 0 79.5 17.5t65.5 51.5t44.5 84t17.5 115q1 41 0 83t-3 83.5t-3.5 81.5t-0.5 77q1 52 15.5 93t37.5 70t51.5 46.5t58.5 24.5q-48 12 -82.5 53t-34.5 106q0 61 17 120t37.5 118.5t37.5 121t17 126.5q0 82 -41 132t-111 50h-29q-9 0 -16 5.5
t-5 16.5l4 40h51z" />
    <glyph glyph-name="asterisk" unicode="*" horiz-adv-x="787" 
d="M545 1215q-16 -8 -29 -13.5t-31 -7.5q18 -2 30 -6t25 -13l161 -110l-30 -43l-159 110q-14 8 -22.5 15.5t-17.5 22.5q4 -17 5 -29t-1 -29l-26 -214h-50l26 214q2 17 6.5 30t14.5 30q-14 -15 -24.5 -23.5t-25.5 -16.5l-186 -110l-19 43l185 110q16 9 29 13t32 6v1
q-19 3 -30.5 7t-25.5 13l-159 110l30 44l159 -110q14 -9 22 -19t19 -27q-5 20 -7 34t0 31l27 215h50l-27 -214q-2 -18 -6.5 -31.5t-14.5 -32.5q13 17 24.5 26t27.5 18l186 110l18 -44z" />
    <glyph glyph-name="dagger" unicode="&#x2020;" horiz-adv-x="1160" 
d="M660 958q37 1 77 4.5t79.5 6.5t78 5.5t73.5 2.5q23 0 32.5 -13t6.5 -29l-3 -32h-350l-63 -508l-78 -745q-23 -12 -51 -12q-29 0 -47 12l103 745l63 508h-351l4 32q2 16 15 29t36 13q70 -1 148.5 -8.5t153.5 -10.5l46 474q11 5 23.5 8.5t26.5 3.5t26 -3.5t22 -8.5z" />
    <glyph glyph-name="daggerdbl" unicode="&#x2021;" horiz-adv-x="1160" 
d="M666 958q75 3 156 10.5t151 8.5q23 0 32.5 -13t7.5 -29l-3 -32h-351l-43 -354l-47 -371h351l-3 -31q-3 -16 -15.5 -29.5t-35.5 -13.5q-70 2 -149 9.5t-154 9.5l-45 -473q-11 -6 -24 -9t-26 -3q-29 0 -48 12l71 473q-38 -1 -77.5 -4l-79 -6t-78 -5.5t-74.5 -3.5
q-23 0 -32.5 13.5t-7.5 29.5l5 31h351l45 371l43 354h-351l5 32q2 16 14.5 29t35.5 13q70 -1 148.5 -8.5t153.5 -10.5l47 474q11 5 23.5 8.5t26.5 3.5t26 -3.5t21 -8.5z" />
    <glyph glyph-name="section" unicode="&#xa7;" horiz-adv-x="904" 
d="M711 626q0 40 -15 71.5t-40 57t-58.5 46.5t-70.5 40t-75 38t-72 41q-96 -43 -134.5 -94.5t-38.5 -115.5q0 -57 35.5 -97t89.5 -72t117 -62t118 -66q78 38 111 91t33 122zM84 23q6 8 12 11.5t17 3.5q13 0 28.5 -16t41 -34.5t66 -34.5t102.5 -16t111 19.5t83 53t52 78
t18 94.5q0 61 -36.5 102.5t-91.5 73.5t-118.5 61t-118.5 64.5t-91.5 84t-36.5 119.5q0 85 50 154t163 110q-42 33 -67.5 76t-25.5 105q0 59 24.5 113t69.5 95t107.5 65.5t138.5 24.5q83 0 145 -26t110 -79l-23 -33q-9 -13 -23 -13q-11 0 -25.5 12.5t-39 28t-61 28
t-91.5 12.5q-54 0 -100 -17.5t-79 -46.5t-51.5 -68t-18.5 -81q0 -41 20 -72t53 -56.5t75.5 -47.5t86.5 -44.5t86.5 -48t75.5 -58t53 -73.5t20 -96q0 -93 -46.5 -162.5t-139.5 -107.5q40 -34 64.5 -76.5t24.5 -101.5q0 -68 -25 -128.5t-71.5 -106.5t-113.5 -72.5t-152 -26.5
q-96 0 -162.5 33t-114.5 87z" />
    <glyph glyph-name="paragraph" unicode="&#xb6;" horiz-adv-x="1301" 
d="M1333 1415l-10 -82h-225l-187 -1523h-86l187 1523h-328l-187 -1523h-85l109 889q-91 0 -165 22.5t-126 64t-80 101t-28 134.5q0 86 34.5 158t98.5 124.5t153.5 82t200.5 29.5h724z" />
    <glyph glyph-name="asciicircum" unicode="^" horiz-adv-x="1160" 
d="M1004 800h-67q-11 0 -20 6.5t-14 16.5l-241 436q-19 34 -27 62q-5 -15 -11.5 -30.5t-15.5 -31.5l-240 -436q-5 -8 -13 -15.5t-22 -7.5h-70l341 615h59z" />
    <glyph glyph-name="asciitilde" unicode="~" horiz-adv-x="1160" 
d="M780 567q37 0 67 13.5t51 37.5t32.5 57t12.5 72h77q0 -55 -16 -102t-46 -82t-73.5 -55t-99.5 -20q-52 0 -105.5 19.5t-105.5 43.5t-101 43.5t-92 19.5q-38 0 -68 -13.5t-51 -37.5t-32.5 -57t-11.5 -72h-78q0 55 16 102t46 82t74 55t100 20q51 0 104.5 -19.5t106 -43.5
t101.5 -43.5t92 -19.5z" />
    <glyph glyph-name="quotesingle" unicode="'" horiz-adv-x="369" 
d="M323 1415l-36 -292l-26 -154q-4 -16 -11.5 -25t-24.5 -9q-14 0 -20 9t-8 25l10 154l38 292h78z" />
    <glyph glyph-name="quotedbl" unicode="&#x22;" horiz-adv-x="637" 
d="M323 1415l-36 -292l-26 -154q-4 -16 -11.5 -25t-24.5 -9q-14 0 -20 9t-8 25l10 154l38 292h78zM590 1415l-36 -292l-26 -154q-4 -16 -11.5 -25t-24.5 -9q-14 0 -20 9t-8 25l10 154l38 292h78z" />
    <glyph glyph-name="ampersand" unicode="&#x26;" horiz-adv-x="1287" 
d="M476 737q-71 -30 -128 -73t-97.5 -95.5t-62.5 -113.5t-22 -127t23 -116.5t60 -84.5t84.5 -51t97.5 -17q62 0 120 16.5t110.5 46t99.5 69.5t87 87l-365 450zM1191 0h-77q-25 0 -38 6t-27 23l-154 190q-47 -51 -101 -94.5t-115 -74.5t-128 -48.5t-139 -17.5
q-70 0 -132 22.5t-108.5 65t-73.5 104.5t-27 140q0 82 29 154.5t79 133t117 106.5t143 76q-48 70 -72 136.5t-24 136.5q0 80 27 148t76 118t117 78t150 28q63 0 114.5 -21t88.5 -58.5t57 -89.5t20 -114l-51 -9q-26 -5 -31 23q-2 29 -14 63.5t-36.5 64t-62.5 49t-92 19.5
q-62 0 -112.5 -22t-87 -60.5t-56.5 -91t-20 -114.5q0 -69 31 -140t91 -144l353 -434q49 73 81.5 149.5t46.5 147.5q5 25 27 25h61q-14 -94 -56.5 -193.5t-109.5 -190.5z" />
    <glyph glyph-name="at" unicode="@" horiz-adv-x="1528" 
d="M1031 847q-21 6 -44.5 9.5t-53.5 3.5q-59 0 -113 -18.5t-100 -51t-83.5 -76.5t-64 -93.5t-41 -103t-14.5 -105.5q0 -33 7.5 -61.5t23 -49.5t39 -33t55.5 -12q33 0 69 12t72 43.5t71 85.5t65 138zM1253 -84q-111 -74 -239.5 -114t-280.5 -40q-138 0 -254 45.5t-199.5 132
t-130.5 211t-47 283.5q0 129 30 245.5t83 216t126.5 180t161.5 137t186.5 87t202.5 30.5q112 0 212.5 -36.5t176.5 -108t120 -176.5t44 -242q0 -129 -34 -235.5t-90.5 -183t-130 -118.5t-153.5 -42t-115.5 46.5t-27.5 133.5q-63 -93 -133 -134.5t-146 -41.5q-45 0 -78 16
t-54 44.5t-31.5 66.5t-10.5 82q0 59 16.5 121t47.5 120t76 109t101.5 89t124.5 60t146 22q49 0 91 -8.5t75 -25.5l-127 -347q-33 -93 -39 -150t7 -88.5t39 -42t58 -10.5q59 0 116.5 36.5t102.5 104t72.5 163t27.5 213.5q0 124 -38 218t-104 156t-156 93.5t-193 31.5
q-92 0 -180.5 -27.5t-168 -78.5t-146 -124t-115 -165t-76 -200.5t-27.5 -230.5q0 -148 43 -262t119.5 -192t180 -118t225.5 -40q137 0 253.5 34t211.5 96q18 11 28 5.5t13 -16.5z" />
    <glyph glyph-name="copyright" unicode="&#xa9;" horiz-adv-x="1677" 
d="M1143 426q9 1 16 -4l35 -35q-59 -59 -139 -94t-196 -35q-96 0 -176.5 32.5t-138 91.5t-89.5 142t-32 185q0 100 33.5 183t93.5 142.5t143 92.5t182 33q52 0 95.5 -7.5t80.5 -22t69 -35t63 -47.5l-24 -33q-7 -11 -20 -11q-10 0 -26.5 13t-45.5 28.5t-74.5 28.5t-113.5 13
q-83 0 -151 -26.5t-116.5 -75.5t-75 -119t-26.5 -157q0 -90 26.5 -160t73.5 -118.5t111.5 -74t141.5 -25.5q54 0 94 7.5t72 20t59 30t55 37.5zM130 708q0 99 26 191.5t72.5 172.5t112.5 146t146 113t172 73t192 26t192 -26t172.5 -73t146.5 -113t112.5 -146t72.5 -172.5
t26 -191.5q0 -100 -26 -192t-72.5 -172t-112.5 -146t-146.5 -113t-172.5 -73t-192 -26q-99 0 -191.5 26t-172.5 73t-146 113t-112.5 146t-72.5 172t-26 192zM189 708q0 -139 51.5 -260.5t141.5 -212t210.5 -142.5t258.5 -52t259.5 52t211.5 142.5t142 212t52 260.5
t-52 260.5t-142 212.5t-211.5 143.5t-259.5 52.5t-258.5 -52.5t-210.5 -143.5t-141.5 -212.5t-51.5 -260.5z" />
    <glyph glyph-name="uni2117" unicode="&#x2117;" horiz-adv-x="1677" 
d="M847 683q70 0 118.5 15.5t79 43t44 66t13.5 83.5q0 91 -56 142.5t-185 51.5h-162v-402h148zM861 1151q82 0 143 -19t101.5 -53t60.5 -82t20 -106q0 -56 -20.5 -105.5t-61.5 -86.5t-104 -58t-148 -21h-153v-354h-85v885h247zM851 41q138 0 259.5 52t211.5 142.5t142 212
t52 260.5t-52 260.5t-142 212.5t-211.5 143.5t-259.5 52.5t-258.5 -52.5t-210.5 -143.5t-141.5 -212.5t-51.5 -260.5t51.5 -260.5t141.5 -212t210.5 -142.5t258.5 -52zM851 1430q100 0 192 -26t172.5 -73t146.5 -113t112.5 -146t72.5 -172.5t26 -191.5q0 -100 -26 -192
t-72.5 -172t-112.5 -146t-146.5 -113t-172.5 -73t-192 -26q-99 0 -191.5 26t-172.5 73t-146 113t-112.5 146t-72.5 172t-26 192q0 99 26 191.5t72.5 172.5t112.5 146t146 113t172 73t192 26z" />
    <glyph glyph-name="registered" unicode="&#xae;" horiz-adv-x="1678" 
d="M817 721q121 0 180.5 48.5t59.5 139.5q0 92 -54 134t-172 42h-162v-364h148zM831 1151q153 0 231.5 -57.5t78.5 -175.5q0 -99 -64.5 -163.5t-180.5 -80.5q21 -12 39 -40l285 -368h-80q-10 0 -17.5 3t-13.5 13l-270 351q-8 11 -20.5 17.5t-39.5 6.5h-110v-391h-85v885h247
zM851 41q138 0 259.5 52t211.5 142.5t142 212t52 260.5t-52 260.5t-142 212.5t-211.5 143.5t-259.5 52.5t-258.5 -52.5t-210.5 -143.5t-141.5 -212.5t-51.5 -260.5t51.5 -260.5t141.5 -212t210.5 -142.5t258.5 -52zM851 1430q100 0 192 -26t172.5 -73t146.5 -113t112.5 -146
t72.5 -172.5t26 -191.5q0 -100 -26 -192t-72.5 -172t-112.5 -146t-146.5 -113t-172.5 -73t-192 -26q-99 0 -191.5 26t-172.5 73t-146 113t-112.5 146t-72.5 172t-26 192q0 99 26 191.5t72.5 172.5t112.5 146t146 113t172 73t192 26z" />
    <glyph glyph-name="trademark" unicode="&#x2122;" horiz-adv-x="1367" 
d="M182 1415h433l-7 -58h-182l-64 -517h-68l63 517h-184zM1300 1415l-70 -575h-60l55 446l9 42l-245 -381q-9 -15 -27 -15h-10q-8 0 -14 3.5t-8 11.5l-155 378l-1 -39l-56 -446h-59l69 575h55q10 0 14 -2.5t9 -10.5l153 -366q5 -16 8 -28q7 16 15 28l238 366q6 8 10.5 10.5
t14.5 2.5h55z" />
    <glyph glyph-name="uni2120" unicode="&#x2120;" horiz-adv-x="1350" 
d="M201 944q7 10 17 10q6 0 14.5 -9.5t22 -21t35 -21t53.5 -9.5q30 0 54.5 10.5t41 28t25.5 41t9 49.5q0 31 -17 48t-42 29t-54.5 21.5t-54.5 24.5t-42 40t-17 67q0 34 12.5 65.5t36.5 55.5t57.5 38.5t75.5 14.5q87 0 135 -58l-16 -30q-7 -10 -17 -10q-6 0 -13.5 7
t-19.5 15.5t-30 15.5t-45 7q-53 0 -84 -31.5t-31 -75.5q0 -29 17 -46t42 -29t54.5 -22.5t54.5 -26t42 -40t17 -64.5q0 -41 -14 -77t-40 -63t-62.5 -42.5t-82.5 -15.5q-51 0 -90 20t-64 55zM1284 1415l-70 -575h-59l54 446l9 40l-245 -378q-9 -16 -26 -16h-11q-16 0 -22 16
l-155 377l-1 -39l-55 -446h-61l71 575h55q10 0 14 -2.5t9 -9.5l152 -367q2 -8 4 -14.5t3 -14.5q4 8 8 15t9 14l238 367q5 7 10 9.5t14 2.5h55z" />
    <glyph glyph-name="degree" unicode="&#xb0;" horiz-adv-x="814" 
d="M169 1134q0 62 23.5 116.5t64.5 95t95 63.5t116 23q63 0 118.5 -23t96 -63.5t64 -95t23.5 -116.5t-23.5 -116t-64 -94.5t-96 -64t-118.5 -23.5q-62 0 -116 23.5t-95 64t-64.5 94.5t-23.5 116zM237 1134q0 -48 18 -90t49.5 -73t73.5 -49t90 -18t90 18t73 49t49 73t18 90
t-18 90t-49 73.5t-73 49.5t-90 18t-90 -18t-73.5 -49.5t-49.5 -73.5t-18 -90z" />
    <glyph glyph-name="currency" unicode="&#xa4;" horiz-adv-x="1160" 
d="M311 671q0 -56 21.5 -105t58 -85.5t85.5 -58t105 -21.5q57 0 106.5 21.5t86.5 58t58.5 85.5t21.5 105t-21.5 105.5t-58.5 86.5t-86.5 58.5t-106.5 21.5q-56 0 -105 -21.5t-85.5 -58.5t-58 -86.5t-21.5 -105.5zM953 251l-154 154q-45 -36 -100 -56.5t-118 -20.5
q-62 0 -116 20t-99 56l-155 -154l-49 50l154 154q-36 45 -56.5 100t-20.5 117t20 116.5t56 99.5l-155 154l50 50l153 -154q45 37 100 57.5t118 20.5q62 0 117 -20.5t100 -55.5l154 153l49 -50l-153 -153q36 -45 56.5 -100t20.5 -118q0 -62 -20 -116.5t-56 -99.5l153 -154z
" />
    <glyph glyph-name="Euro" unicode="&#x20ac;" horiz-adv-x="1160" 
d="M52 862h158q30 133 86.5 238t135.5 178.5t178 112.5t213 39q64 0 117 -11.5t96.5 -33.5t80 -54.5t68.5 -74.5l-35 -34q-5 -6 -9.5 -9t-12.5 -3t-18 10.5t-25 26t-37 33.5t-54 33.5t-75.5 26t-101.5 10.5q-95 0 -177 -32t-148 -94.5t-114 -153.5t-75 -208h613l-3 -29
q-2 -11 -10 -19.5t-25 -8.5h-586q-7 -42 -11 -86t-6 -92h521l-3 -29q-2 -12 -11 -20t-24 -8h-484q0 -122 26 -216t74.5 -158t118.5 -97.5t159 -33.5q62 0 111.5 12t88 30.5t67.5 40t49.5 40t34.5 30.5t23 12q8 0 16 -9l32 -33q-41 -46 -88 -83.5t-101 -64t-116 -41
t-132 -14.5q-110 0 -195.5 40.5t-144 116t-88.5 183.5t-30 242v3h-162l6 57h157q2 47 6 91.5t12 86.5h-152z" />
    <glyph glyph-name="Euro.oldstyle" horiz-adv-x="1080" 
d="M72 678h128q25 99 73 177.5t114.5 133t151.5 83.5t184 29q55 0 99.5 -8.5t82 -25.5t69 -42t60.5 -58l-27 -27q-6 -5 -14 -10t-16 -5q-11 0 -28 16t-46.5 34.5t-75 34.5t-113.5 16q-159 0 -268.5 -89.5t-154.5 -258.5h511l-2 -21q-2 -11 -11.5 -19t-21.5 -8h-487
q-8 -38 -11.5 -78.5t-4.5 -84.5h425l-2 -22q-2 -11 -11 -19t-22 -8h-390q7 -173 90 -265.5t232 -92.5q74 0 129.5 19.5t94 43t61.5 43t32 19.5q13 0 23 -14l21 -28q-70 -72 -161 -115t-212 -43q-94 0 -167.5 30t-124.5 86.5t-79 136.5t-31 180h-132l6 49h126q1 84 17 163
h-124z" />
    <glyph glyph-name="dollar" unicode="$" horiz-adv-x="1160" 
d="M682 1351q-83 -4 -147 -31t-107 -69t-65 -96t-22 -112q0 -54 19.5 -92.5t53.5 -67t78 -49.5t94 -39zM522 63q89 5 159.5 36t119.5 80.5t75 114t26 136.5q0 58 -22.5 98t-60 69t-87 49.5t-103.5 38.5zM758 1429q100 -8 171 -44.5t126 -101.5l-25 -33q-12 -16 -27 -16
q-12 0 -29.5 16.5t-46.5 37.5t-73.5 39.5t-109.5 23.5l-99 -576q64 -22 126 -46t111.5 -59.5t80 -87.5t30.5 -130q0 -92 -34 -174.5t-97 -146t-152.5 -102.5t-200.5 -44l-37 -213q-2 -12 -11 -21t-22 -9h-35l42 243q-128 6 -216.5 55t-150.5 129l31 38q14 14 30 14
q9 0 20.5 -11t28.5 -27.5t40.5 -36.5t56 -37.5t75 -30t98.5 -15.5l111 641q-60 20 -117 44t-101.5 60t-71.5 87.5t-27 127.5q0 78 30.5 150.5t87.5 128.5t139 90.5t185 37.5l29 166q2 14 11 22.5t22 8.5h35z" />
    <glyph glyph-name="cent" unicode="&#xa2;" horiz-adv-x="1160" 
d="M684 938q-105 -3 -187.5 -40.5t-139.5 -104t-87.5 -160t-30.5 -208.5q0 -81 20.5 -145.5t58.5 -111t93 -74t124 -33.5zM759 1008q86 -8 151 -37.5t111 -74.5l-27 -32q-5 -5 -10 -8t-13 -3q-9 0 -24 11.5t-41 25.5t-64.5 27.5t-94.5 18.5l-151 -877q75 2 129 19t90.5 36.5
t57.5 35.5t32 16t17 -9l21 -30q-26 -28 -63 -52.5t-83.5 -43t-100.5 -30t-112 -13.5l-36 -211q-2 -13 -10.5 -21.5t-21.5 -8.5h-35l41 241q-86 6 -155 38t-118 87.5t-75 133t-26 173.5q0 129 38 236.5t109 185.5t172.5 122t229.5 46l35 207q3 12 11.5 21.5t21.5 9.5h35z" />
    <glyph glyph-name="sterling" unicode="&#xa3;" horiz-adv-x="1160" 
d="M851 661q-2 -12 -11 -20t-24 -8h-474l-39 -322q-6 -44 -17 -79t-28 -63.5t-40.5 -52t-54.5 -43.5q21 4 42 6t43 2h791l-4 -39q-2 -15 -15 -28.5t-32 -13.5h-971l7 64q37 13 67 30.5t53.5 43.5t38.5 62.5t22 89.5l42 343h-176l5 37q2 11 10.5 19t23.5 8h145l36 297
q12 93 49.5 173t98.5 138.5t144 92t185 33.5q81 0 139 -18.5t99 -50t67 -74.5t41 -91l-40 -22q-31 -14 -48 12q-16 32 -35 62t-49 53t-74 36.5t-109 13.5q-78 0 -142.5 -26t-112.5 -73.5t-78 -113t-40 -144.5l-36 -298h504l-3 -36v0z" />
    <glyph glyph-name="glyph363" horiz-adv-x="1160" 
d="M671 798l-191 -786q-24 -98 -67 -168t-102.5 -116t-134.5 -67.5t-162 -21.5l6 47q3 31 40 31q51 1 101.5 16.5t94 50.5t78 91.5t54.5 139.5l191 780l-192 10q-26 3 -23 24l5 38h228l47 192q47 192 165 282.5t300 90.5l-7 -49q-3 -29 -38 -29q-53 0 -103.5 -15.5t-94 -51
t-78 -92t-54.5 -138.5l-49 -190h358l-9 -69h-363z" />
    <glyph glyph-name="yen" unicode="&#xa5;" horiz-adv-x="1160" 
d="M643 616h347l-6 -57h-367l-15 -118h367l-7 -56h-367l-47 -385h-92l47 385h-367l7 56h367l14 118h-367l7 57h347l-324 799h78q27 0 33 -25l267 -668q6 -20 10.5 -37t6.5 -34q7 17 15 34t19 37l430 668q7 11 16.5 18t23.5 7h78z" />
    <glyph glyph-name="yen.oldstyle" horiz-adv-x="1080" 
d="M587 484h289l-7 -56h-311l-14 -110h312l-7 -55h-311l-33 -263h-85l33 263h-312l6 55h312l14 110h-312l6 56h290l-283 604h72q15 0 25.5 -9.5t15.5 -20.5l216 -487q8 -22 14 -39t8 -34q7 18 15.5 34.5t21.5 38.5l336 487q8 11 23 20.5t33 9.5h63z" />
    <glyph glyph-name="afii61248" unicode="&#x2105;" horiz-adv-x="1495" 
d="M1242 1397q7 8 15 13t22 5h65l-1108 -1398q-12 -17 -35 -17h-67zM616 847q5 0 10 -5l25 -32q-47 -49 -107.5 -77t-141.5 -28q-63 0 -113.5 22.5t-85.5 63.5t-54 98t-19 126q0 93 28.5 170.5t78 133t117 86.5t146.5 31q69 0 120 -23.5t86 -65.5l-28 -34q-5 -9 -17 -9
q-7 0 -18 10.5t-30 23t-48 23t-73 10.5q-60 0 -112.5 -24.5t-91 -69.5t-60.5 -109.5t-22 -145.5q0 -59 15.5 -106t43 -79.5t65.5 -50t84 -17.5q31 0 57 4.5t48.5 13.5t42.5 22.5t40 31.5q8 6 14 6zM1396 401q0 -92 -28 -169t-77.5 -132t-117.5 -85.5t-148 -30.5
q-64 0 -115.5 23t-88 64t-56 98t-19.5 126q0 93 28 170t77.5 132.5t117 86t146.5 30.5q65 0 117 -23t88.5 -64.5t56 -99t19.5 -126.5zM1319 399q0 57 -14.5 103.5t-42 79t-67 50t-88.5 17.5q-62 0 -114.5 -24.5t-90.5 -70t-59.5 -110.5t-21.5 -146q0 -117 57 -183.5
t156 -66.5q63 0 115 24.5t90 70t59 110.5t21 146z" />
    <glyph glyph-name="afii61352" unicode="&#x2116;" horiz-adv-x="2102" 
d="M1796 1368q-52 0 -96 -20.5t-76.5 -59t-50.5 -93.5t-18 -124q0 -99 48 -155.5t131 -56.5q53 0 97 20.5t76 59t50 93.5t18 124q0 98 -47 155t-132 57zM1726 795q-56 0 -101 20t-76.5 56t-48.5 86t-17 110q0 80 24.5 146.5t67.5 114.5t101.5 75t127.5 27q57 0 102.5 -20
t77.5 -56t49 -86t17 -110q0 -81 -24.5 -147.5t-68 -114.5t-102.5 -74.5t-129 -26.5zM1235 1415h87l-174 -1415h-48q-12 0 -19.5 4.5t-14.5 14.5l-688 1231q-1 -14 -1.5 -27.5t-2.5 -25.5l-148 -1197h-86l173 1415h49q14 0 21 -4t14 -15l688 -1229q0 14 1 28t3 26zM1426 630
h560l-8 -67h-560z" />
    <glyph glyph-name="numbersign" unicode="#" horiz-adv-x="1160" 
d="M804 903h-299l-132 -391h300zM1125 971l-11 -36q-7 -32 -46 -32h-186l-132 -391h227q16 0 23 -9t2 -31l-8 -29h-263l-147 -443h-40q-16 0 -24 11.5t0 31.5l134 400h-300l-135 -404q-6 -21 -19.5 -30t-30.5 -9h-41l148 443h-183q-34 0 -24 40l7 29h219l132 391h-254l9 37
q7 31 48 31h215l137 406q12 38 49 38h41l-150 -444h300l149 444h41q16 0 24 -11t1 -30l-137 -403h225z" />
    <glyph glyph-name="zero.oldstyle.pnum" horiz-adv-x="1179" 
d="M1061 631q0 -154 -45.5 -273.5t-121.5 -201.5t-175 -124.5t-206 -42.5q-87 0 -162 31.5t-129.5 92t-86 148t-31.5 199.5q0 154 45 274t121 202t175 124.5t206 42.5q87 0 162 -32t130 -92.5t86.5 -148t31.5 -199.5zM967 628q0 99 -25.5 174t-70 125.5t-104 76t-126.5 25.5
q-84 0 -164.5 -35.5t-142.5 -106t-100 -176.5t-38 -248q0 -99 26 -173.5t70 -125t103.5 -76t127.5 -25.5q84 0 164 35t142 105.5t100 176.5t38 248z" />
    <glyph glyph-name="one.oldstyle.pnum" horiz-adv-x="695" 
d="M559 1097l-135 -1097h-90l113 920q2 16 4.5 33t6.5 34l-302 -213q-29 -22 -47 4l-25 39l404 280h71z" />
    <glyph glyph-name="two.oldstyle.pnum" horiz-adv-x="997" 
d="M813 83q17 0 25.5 -10t6.5 -24l-6 -49h-816l6 54l475 352q64 48 115 94.5t86.5 95t54 101t18.5 112.5q0 48 -15 87.5t-42.5 68t-66.5 44.5t-88 16q-65 0 -116.5 -21.5t-90.5 -57t-66 -81.5t-43 -94q-6 -14 -12.5 -19t-17.5 -5q-8 0 -14 3l-47 9q19 67 55 129t88.5 109.5
t121.5 75.5t155 28q66 0 119 -20.5t90 -57.5t57 -89t20 -114q0 -69 -22 -130t-61.5 -116.5t-94.5 -106.5t-122 -100l-408 -299q32 7 68 11t68 4h520z" />
    <glyph glyph-name="three.oldstyle.pnum" horiz-adv-x="980" 
d="M152 759q19 67 53.5 129t85 109.5t118 75.5t153.5 28q63 0 117.5 -18.5t94 -54t62.5 -87.5t23 -120t-20.5 -124t-57 -100t-86.5 -74.5t-108 -46.5q115 -23 170.5 -95.5t55.5 -177.5q0 -82 -32.5 -156t-89.5 -129.5t-135.5 -88t-170.5 -32.5q-99 0 -163 28.5t-102 74
t-56 103t-27 114.5l45 19q19 7 29 2.5t14 -16.5q7 -45 22 -90t45 -81t78 -59t123 -23q71 0 132 26t105.5 71t70 105t25.5 128q0 51 -16.5 94t-53 74t-95 48.5t-142.5 17.5l8 64q75 3 138.5 25t109.5 61.5t71.5 96t25.5 127.5q0 55 -17.5 96t-47.5 68t-70.5 40.5t-85.5 13.5
q-63 0 -113 -21t-88 -56t-64.5 -81t-43.5 -96q-6 -14 -12.5 -19t-17.5 -5q-6 0 -15 3z" />
    <glyph glyph-name="four.oldstyle.pnum" horiz-adv-x="1059" 
d="M638 233l83 678q2 15 5 31.5t8 33.5l-624 -743h528zM943 233l-6 -45q-3 -26 -30 -26h-198l-43 -351h-79l43 351h-590q-11 0 -18.5 7.5t-8.5 18.5l-1 40l733 868h78l-105 -863h225z" />
    <glyph glyph-name="five.oldstyle.pnum" horiz-adv-x="929" 
d="M861 1088l-5 -44q-2 -17 -13 -27.5t-32 -10.5h-450l-123 -423q109 28 207 28q82 0 144 -24.5t103.5 -68t62 -103t20.5 -130.5q0 -113 -38.5 -203t-103.5 -153t-150 -96.5t-178 -33.5q-50 0 -94 9.5t-81.5 25t-68.5 36t-54 42.5l29 35q8 11 22 14.5t26 -5.5
q38 -32 97.5 -57.5t136.5 -25.5q76 0 144 28t118 80t79.5 126.5t29.5 167.5q0 58 -16.5 106.5t-50.5 83.5t-85.5 54.5t-121.5 19.5q-48 0 -102 -8.5t-116 -26.5l-54 17l162 567h556z" />
    <glyph glyph-name="six.oldstyle.pnum" horiz-adv-x="962" 
d="M432 57q82 0 149.5 30t115.5 82t74.5 123t26.5 154q0 64 -18.5 116.5t-53 89t-83.5 56.5t-109 20q-83 0 -150.5 -32.5t-115.5 -85.5t-74.5 -120t-26.5 -136q0 -63 18 -117.5t51.5 -94.5t83 -62.5t112.5 -22.5zM384 812q-29 -35 -54.5 -67.5t-47.5 -62.5q57 54 129 84
t152 30q72 0 131.5 -24.5t102 -69.5t66 -108t23.5 -140q0 -102 -36 -188t-98.5 -148.5t-147 -97.5t-182.5 -35q-78 0 -141.5 26t-107.5 74t-68 116.5t-24 154.5q0 54 12 108t37.5 110.5t65 117t94.5 128.5l388 479q26 32 61 32h76z" />
    <glyph glyph-name="seven.oldstyle.pnum" horiz-adv-x="898" 
d="M917 1088l-5 -42q-3 -23 -16 -45l-672 -1159q-7 -13 -21 -22t-28 -9h-67l673 1147q18 29 36 48h-686q-14 0 -21.5 8t-5.5 22l6 52h807z" />
    <glyph glyph-name="eight.oldstyle.pnum" horiz-adv-x="1020" 
d="M443 56q73 0 135 24.5t107.5 69t71 108t25.5 141.5q0 72 -24.5 120.5t-63 78t-85.5 41.5t-92 12q-54 0 -113.5 -15.5t-109.5 -54.5t-83 -104.5t-33 -164.5q0 -57 18.5 -104t53 -80.5t83.5 -52.5t110 -19zM295 960q0 -46 13.5 -88.5t42 -75.5t72 -53t103.5 -20
q74 0 130 27t93 71.5t55.5 100.5t18.5 113q0 49 -15 91.5t-44 74t-72 49.5t-99 18q-68 0 -123 -24t-94 -65.5t-60 -97.5t-21 -121zM652 690q49 -14 90 -38t69.5 -60t44.5 -84t16 -108q0 -96 -33.5 -173t-92 -131t-138.5 -82.5t-173 -28.5q-79 0 -143 22.5t-109.5 64
t-70 100.5t-24.5 132q0 83 22.5 148t62.5 113t95.5 79.5t122.5 46.5q-90 32 -135.5 102.5t-45.5 164.5q0 79 28.5 148t80.5 120.5t123.5 81.5t158.5 30q73 0 130 -23.5t96.5 -64t60.5 -95t21 -115.5q0 -63 -17 -118.5t-50 -101t-81 -79t-109 -51.5z" />
    <glyph glyph-name="nine.oldstyle.pnum" horiz-adv-x="933" 
d="M427 422q77 0 140 31t107.5 80.5t68.5 111t24 123.5q0 59 -18 107.5t-50.5 82.5t-78.5 52.5t-101 18.5q-73 0 -135 -26.5t-107 -73.5t-70.5 -111t-25.5 -139q0 -59 17 -106.5t49 -81t77.5 -51.5t102.5 -18zM572 336q34 43 62.5 81t51.5 75q-57 -65 -133 -102.5
t-160 -37.5q-67 0 -122.5 23t-95 64.5t-61.5 100t-22 129.5q0 93 34.5 172.5t93.5 137.5t139 91t170 33q73 0 133 -24t102 -67.5t65 -105t23 -136.5q0 -60 -14 -115t-40.5 -110t-65 -112t-88.5 -121l-362 -474q-10 -12 -24 -19.5t-31 -7.5h-75z" />
    <glyph glyph-name="zero.oldstyle" horiz-adv-x="1080" 
d="M977 640q0 -160 -42.5 -282t-113.5 -204t-163.5 -123.5t-193.5 -41.5q-80 0 -149 30t-119.5 88.5t-79 145t-28.5 198.5q0 160 42.5 281.5t113.5 204t163.5 124.5t193.5 42q80 0 149 -30.5t119.5 -89t79 -145t28.5 -198.5zM885 643q0 94 -22 166t-61 121t-93 74t-118 25
q-84 0 -158.5 -37.5t-131 -110.5t-89 -181.5t-32.5 -250.5q0 -95 22 -167t61 -121t93 -73.5t117 -24.5q84 0 158.5 37t131 109.5t89.5 181t33 252.5z" />
    <glyph glyph-name="one.oldstyle" horiz-adv-x="1080" 
d="M858 70l-8 -70h-672l8 70h299l102 833q5 42 15 85l-306 -213q-14 -10 -26.5 -8.5t-19.5 12.5l-22 39l402 279h70l-125 -1027h283z" />
    </font>
</defs>
</svg>
