<?xml version="1.0" standalone="no"?>
<!DOCTYPE svg PUBLIC "-//W3C//DTD SVG 1.1//EN" "http://www.w3.org/Graphics/SVG/1.1/DTD/svg11.dtd" >
<svg>
<metadata>
Created by FontForge 20110222 at Thu Apr 16 03:59:54 2015
 By www-data
Copyright (c) 1981, 1982, 1983, 1989 and 1993, Linotype Library GmbH or its affiliated Linotype-Hell companies. All rights reserved.

The digitally encoded machine readable software for producing the Typefaces licensed to you is now the property of Heidelberger Druckmaschinen AG and its licensors, and may not be reproduced, used, displayed, modified, disclosed or transferred without the express written approval of Heidelberger Druckmaschinen AG.

Copyright (c) 1988, 1990, 1993 Adobe Systems Incorporated. All Rights Reserved.
</metadata>
<defs>
<font id="HelveticaNeue-Light" horiz-adv-x="519" >
  <font-face 
    font-family="Helvetica Neue"
    font-weight="300"
    font-stretch="normal"
    units-per-em="1000"
    panose-1="2 0 4 3 0 0 0 2 0 4"
    ascent="800"
    descent="-200"
    x-height="516"
    cap-height="714"
    bbox="-430 -336.997 1420 1163.01"
    underline-thickness="50"
    underline-position="-75"
    unicode-range="U+0008-FE48"
  />
<missing-glyph horiz-adv-x="500" 
d="M442 8h-384v496h384v-496zM50 512v-512h400v512h-400z" />
    <glyph glyph-name="fi" unicode="fi" horiz-adv-x="444" 
d="M320 714v-101h63v101h-63zM94 463l0.000976562 -463h63v463h102v53h-102v45c0.00195312 14 0.334961 27 0.999023 39c0.666992 12 3.16699 22.5 7.5 31.5s11.166 16.167 20.499 21.5s22.666 8 39.999 8c7.33301 0 14.666 -0.5 21.999 -1.5
c7.33301 -1.03027 15.333 -2.19727 24 -3.5v54c-10 1.33301 -19 2.33301 -27 3c-8 0.688477 -16.667 1.02148 -26 1c-25.333 -0.0078125 -46.166 -3.6748 -62.499 -11c-16.333 -7.33496 -29.166 -17.668 -38.499 -31c-9.33301 -13.333 -15.666 -29.333 -18.999 -48
s-5 -39 -5 -61v-47h-88v-53h88zM320.001 516v-516h63v516h-63z" />
    <glyph glyph-name="fl" unicode="fl" horiz-adv-x="444" 
d="M320 714v-714h63v714h-63zM94 463l0.000976562 -463h63v463h102v53h-102v45c0.00195312 14 0.334961 27 0.999023 39c0.666992 12 3.16699 22.5 7.5 31.5s11.166 16.167 20.499 21.5s22.666 8 39.999 8c7.33301 0 14.666 -0.5 21.999 -1.5
c7.33301 -1.03027 15.333 -2.19727 24 -3.5v54c-10 1.33301 -19 2.33301 -27 3c-8 0.688477 -16.667 1.02148 -26 1c-25.333 -0.0078125 -46.166 -3.6748 -62.499 -11c-16.333 -7.33496 -29.166 -17.668 -38.499 -31c-9.33301 -13.333 -15.666 -29.333 -18.999 -48
s-5 -39 -5 -61v-47h-88v-53h88z" />
    <glyph glyph-name=".notdef" horiz-adv-x="500" 
d="M442 8h-384v496h384v-496zM50 512v-512h400v512h-400z" />
    <glyph glyph-name="controlBS" horiz-adv-x="0" 
 />
    <glyph glyph-name="controlHT" unicode="&#x9;" horiz-adv-x="278" 
 />
    <glyph glyph-name="controlCR" unicode="&#xd;" horiz-adv-x="278" 
 />
    <glyph glyph-name="controlGS" horiz-adv-x="0" 
 />
    <glyph glyph-name="space" unicode=" " horiz-adv-x="278" 
 />
    <glyph glyph-name="exclam" unicode="!" horiz-adv-x="241" 
d="M79 0h84v106h-84v-106zM87 501l15 -323h38l15 323v213h-68v-213z" />
    <glyph glyph-name="quotedbl" unicode="&#x22;" horiz-adv-x="370" 
d="M220 714v-243h63v243h-63zM87 714v-243h63v243h-63z" />
    <glyph glyph-name="numbersign" unicode="#" horiz-adv-x="556" 
d="M223 424h141l-22 -156h-141zM497 223v45h-105l22 156h111v45h-105l31 222h-50l-31 -222h-141l31 222h-50l-31 -222h-116v-45h110l-22 -156h-116v-45h110l-31 -223h50l31 223h141l-31 -223h50l31 223h111z" />
    <glyph glyph-name="dollar" unicode="$" horiz-adv-x="556" 
d="M92 228l-63 0.000976562c2.66699 -76 21.834 -133.333 57.501 -172s92.5 -61.667 170.5 -69v-86h39v85c29.333 0 57.833 4.16699 85.5 12.5s52.334 20.833 74.001 37.5s39 37.5 52 62.5s19.5 53.833 19.5 86.5c-0.00195312 35.333 -6.66895 64.5 -20 87.5
c-13.333 23 -30.833 42.167 -52.5 57.5s-46.334 27.333 -74 36c-27.667 8.66699 -55.834 16 -84.501 22v288c44 0 79.667 -14.833 107 -44.5s41.333 -69.5 42 -119.5h63c0.666992 32.667 -4.5 62.334 -15.5 89c-11.001 26.667 -26.334 49.5 -46 68.499
c-19.667 19 -42.334 33.667 -68 44c-25.667 10.333 -53.167 15.5 -82.5 15.5v78h-39v-78c-28.667 0 -55.834 -4.5 -81.501 -13.5s-48 -22 -67 -39s-34 -37.5 -45 -61.5s-16.5 -51 -16.5 -81c0 -34.667 5.66699 -63.5 17 -86.5s26.5 -42 45.5 -57s41.333 -26.667 67 -35
s52.5 -15.5 80.5 -21.5v-296c-52.667 6 -93.167 24.5 -121.5 55.5s-42.833 75.833 -43.5 134.5zM257 676.001v-279c-18.667 4.66699 -36.834 9.66699 -54.501 15c-17.667 5.33398 -33.334 12.667 -47.001 22s-24.667 21.333 -33 36s-12.5 33.667 -12.5 57
c0 26 3.83301 48.5 11.5 67.5s18.334 34.5 32.001 46.5c13.667 12.0039 29.334 20.8369 47.001 26.5c17.667 5.67188 36.5 8.50488 56.5 8.5zM296 38.001l-0.000976562 288c19.334 -4.66699 39.001 -10.334 59.001 -17c20 -6.66699 38 -15.167 54 -25.5
s29.167 -23.5 39.5 -39.5c10.335 -16 15.502 -36 15.5 -60c-0.00195312 -26 -4.83496 -48.167 -14.5 -66.5c-9.66797 -18.333 -22.335 -33.5 -38.001 -45.5c-15.667 -12 -33.5 -20.667 -53.499 -26c-20 -5.33301 -40.667 -8 -62 -8z" />
    <glyph glyph-name="percent" unicode="%" horiz-adv-x="889" 
d="M228 706c-28 0 -52.167 -4.83203 -72.5 -14.499s-36.833 -23 -49.5 -40s-22 -37 -28 -60s-9 -47.833 -9 -74.5s3 -51.5 9 -74.5s15.333 -43 28 -60s29.167 -30.333 49.5 -39.999c20.333 -9.66797 44.5 -14.501 72.5 -14.5c28 0 52.167 4.83301 72.5 14.5
s36.833 23 49.5 40s22 37 28 60s9 47.833 9 74.5s-3 51.5 -9 74.499c-6.00098 23 -15.334 43 -28 60c-12.667 17.001 -29.167 30.334 -49.5 39.999c-20.333 9.6748 -44.5 14.5078 -72.5 14.5zM667 318.001c20.668 0 37.8359 -4.50098 51.501 -13.501
c13.668 -9 24.501 -20.667 32.5 -35c8 -14.333 13.667 -30 17 -47s5 -33.5 5 -49.5c-0.0117188 -16 -1.67871 -32.333 -5 -49c-3.33594 -16.667 -9.00293 -32 -17 -46c-8 -14 -18.833 -25.5 -32.5 -34.5s-30.834 -13.5 -51.501 -13.5c-21.333 0 -38.833 4.5 -52.5 13.5
s-24.5 20.5 -32.5 34.5s-13.5 29.333 -16.5 46s-4.5 33 -4.5 49s1.5 32.5 4.5 49.5s8.5 32.667 16.5 47c8.00098 14.334 18.834 26.001 32.5 35.001c13.667 9 31.167 13.5 52.5 13.5zM667.001 363c-28.001 -0.00195312 -52.167 -4.83496 -72.5 -14.5
c-20.333 -9.66699 -36.833 -23 -49.5 -40s-22 -37 -28 -60s-9 -47.833 -9 -74.5s3 -51.5 9 -74.5c6.00293 -23 15.3359 -43 28 -60c12.667 -17 29.167 -30.167 49.5 -39.5s44.5 -14 72.5 -14s52.167 4.66699 72.5 14s36.833 22.5 49.5 39.5c12.6699 17 22.0029 37 28 60
c6 23 9 47.833 9 74.5s-3 51.5 -9 74.5s-15.333 43 -28 60s-29.167 30.333 -49.5 40c-20.334 9.66699 -44.501 14.5 -72.5 14.5zM643.002 725l-453 -758h48l452 758h-47zM228.002 661c20.667 0 37.8311 -4.50195 51.498 -13.502c13.667 -9.00098 24.5 -20.668 32.5 -35
c8.00098 -14.334 13.668 -30.001 17.001 -47c3.33594 -17 5.00293 -33.5 5 -49.5c0 -16 -1.66699 -32.333 -5 -48.999c-3.33301 -16.667 -9 -32 -17 -45.999c-8 -14 -18.833 -25.5 -32.499 -34.5c-13.667 -9 -30.834 -13.5 -51.5 -13.5c-21.333 0 -38.833 4.5 -52.5 13.5
s-24.5 20.5 -32.5 34.5s-13.5 29.333 -16.5 46s-4.5 33 -4.5 49s1.5 32.5 4.5 49.5s8.5 32.667 16.5 47s18.833 26 32.5 35s31.167 13.5 52.5 13.5z" />
    <glyph glyph-name="ampersand" unicode="&#x26;" horiz-adv-x="611" 
d="M284 661c26 0 48.334 -7.83398 67.001 -23.501s28 -38.5 28 -68.5c-0.000976562 -17.334 -3.33398 -33.167 -9.99902 -47.5c-6.66699 -14.333 -15.334 -27.333 -26 -39c-10.667 -11.667 -22.5 -22.167 -35.5 -31.5s-25.833 -18 -38.499 -26
c-8 9.33301 -16.667 19.833 -26 31.5c-9.33398 11.667 -18.001 23.667 -26.001 36c-8 12.334 -14.667 25.001 -20 38.001c-5.33398 13.001 -8.00098 25.834 -8.00098 38.5c0 30.001 9.33301 52.834 27.999 68.5c18.667 15.6709 41 23.5039 67 23.5zM465.001 92.999
l76.002 -92.999h79l-120 145c16.668 30.667 27.835 61.834 33.501 93.501c5.6709 31.667 8.50391 57.5 8.5 77.5h-63c-0.00390625 -27.333 -1.33691 -49.833 -4 -67.5c-2.66797 -17.667 -8.33496 -35.167 -17.001 -52.5l-156 188c18 11.334 35.333 23.167 52 35.5
s31.5 25.833 44.5 40.5s23.5 31 31.5 49s12 38 12 60c0 22.001 -4.16699 41.834 -12.5 59.5c-8.33301 17.668 -19.666 32.835 -33.999 45.5c-14.333 12.6689 -31 22.502 -50 29.499c-19 7 -39.5 10.5 -61.5 10.5s-42.5 -3.5 -61.5 -10.5s-35.667 -16.833 -50 -29.5
s-25.666 -27.834 -33.999 -45.501c-8.33398 -17.667 -12.501 -37.5 -12.501 -59.5c0 -17.334 2.83301 -33.667 8.49902 -49c5.66699 -15.333 12.667 -30 21 -44s17.666 -27.5 27.999 -40.5s20.5 -25.833 30.5 -38.499c-20 -10.667 -40.333 -23 -61 -37
s-39.5 -29.667 -56.5 -47s-30.833 -36.666 -41.5 -57.999s-16 -44.666 -16 -69.999c0 -32.667 5.5 -61.334 16.5 -86.001s26.167 -45.334 45.5 -62.001s42.166 -29.334 68.499 -38.001s54.833 -13 85.5 -13c42 0 81 9.66699 117 29s67 45.333 93 78zM248.003 356
l178.001 -216.001c-20 -28.667 -44.167 -52.834 -72.5 -72.501s-60.5 -29.5 -96.5 -29.5c-20 0 -39.333 3.33301 -58 10s-35.167 16.334 -49.5 29.001c-14.334 12.667 -25.834 27.667 -34.5 45c-8.66699 17.333 -13 36.333 -13 57c0 21.333 4.33301 40.833 13 58.5
s20 33.834 34 48.501s29.667 27.667 47 39c17.333 11.334 34.666 21.667 51.999 31z" />
    <glyph glyph-name="quotesingle" unicode="'" horiz-adv-x="278" 
d="M108 714v-243h63v243h-63z" />
    <glyph glyph-name="parenleft" unicode="(" horiz-adv-x="241" 
d="M192 -190l50 0.000976562c-19.333 30.667 -36.833 63.667 -52.5 99s-29.167 71.833 -40.5 109.5s-20 75.5 -26 113.5s-9 75 -9 111c0 89.333 10.167 174.666 30.5 255.999s52.833 158 97.5 230h-50c-44 -68.667 -78.5 -141.5 -103.5 -218.5s-37.5 -158.5 -37.5 -244.5
c0 -44 3.16699 -85.5 9.5 -124.5s15.5 -76.833 27.5 -113.5s26.833 -73 44.5 -109s37.5 -72.333 59.5 -109z" />
    <glyph glyph-name="parenright" unicode=")" horiz-adv-x="241" 
d="M49 729l-48.999 -0.000976562c18 -32.001 34.833 -65.668 50.5 -101.001c15.667 -35.334 29.167 -71.501 40.5 -108.5c11.333 -37 20.166 -74.5 26.499 -112.5s9.5 -75.333 9.5 -111.999c0 -89.333 -10.167 -174.5 -30.5 -255.5s-52.5 -157.5 -96.5 -229.5h49
c44 68.667 78.5 141.334 103.5 218.001s37.5 158 37.5 244c0 43.333 -3.16699 84.666 -9.5 123.999c-6.33301 39.334 -15.5 77.501 -27.5 114.501s-26.833 73.5 -44.5 109.5c-17.667 36.001 -37.5 72.334 -59.5 109z" />
    <glyph glyph-name="asterisk" unicode="*" horiz-adv-x="352" 
d="M27 595l115 -39l-73 -98l32 -23l73 100l73 -100l32 23l-72 98l118 39l-15 37l-115 -41v123h-39v-123l-115 41z" />
    <glyph glyph-name="plus" unicode="+" horiz-adv-x="600" 
d="M274 503v-225h-225v-53h225v-225h53v225h225v53h-225v225h-53z" />
    <glyph glyph-name="comma" unicode="," horiz-adv-x="278" 
d="M181 106l-84 0.00195312v-106h42c0.666992 -7.33301 0.166992 -15.833 -1.5 -25.5s-4.5 -19 -8.5 -28s-9 -17.167 -15 -24.5s-13 -12.333 -21 -15v-43c14.667 4 27.5 10.667 38.5 20s20.167 20.166 27.5 32.499s12.833 25.666 16.5 39.999
c3.66797 14.333 5.50098 28.833 5.5 43.5v106z" />
    <glyph glyph-name="hyphen" unicode="-" horiz-adv-x="370" 
d="M60 246h250v58h-250v-58z" />
    <glyph glyph-name="period" unicode="." horiz-adv-x="278" 
d="M97 0h84v106h-84v-106z" />
    <glyph glyph-name="slash" unicode="/" horiz-adv-x="333" 
d="M-12 -14h53l305 743h-51z" />
    <glyph glyph-name="zero" unicode="0" horiz-adv-x="556" 
d="M278 706c-50.667 -0.000976562 -92.001 -11.168 -124.001 -33.5c-32 -22.333 -56.833 -50.833 -74.5 -85.5s-29.667 -73.334 -36 -116.001s-9.5 -84.667 -9.5 -126c0 -40.667 3.16699 -82.334 9.5 -125c6.33301 -42.667 18.333 -81.334 36 -116.001s42.5 -63 74.5 -85
s73.333 -33 124 -33c51.333 0 92.833 11 124.5 33s56.334 50.333 74.001 85s29.667 73.334 36 116.001s9.5 84.667 9.5 126c-0.00390625 40.667 -3.1709 82.334 -9.5 125.001c-6.33301 42.667 -18.333 81.334 -36 116c-17.667 34.667 -42.334 63.167 -74 85.5
c-31.667 22.333 -73.167 33.5 -124.5 33.5zM277.999 653c40 0 71.999 -10.332 95.999 -30.999s42.167 -46.334 54.5 -77.001c12.335 -30.667 20.502 -64 24.501 -100c4 -36 6 -69 6 -99c0 -30.667 -2 -63.834 -6 -99.501s-12.167 -69 -24.5 -100s-30.5 -56.833 -54.5 -77.5
s-56 -31 -96 -31s-72 10.333 -96 31s-42.167 46.5 -54.5 77.5s-20.5 64.333 -24.5 100s-6 68.834 -6 99.501c0 30 2 63 6 99s12.167 69.333 24.5 100s30.5 56.334 54.5 77c24 20.6689 56 31.002 96 31z" />
    <glyph glyph-name="one" unicode="1" horiz-adv-x="556" 
d="M97 565l-0.00195312 -44.999h185v-520h63v700h-51c-4.66797 -32 -12.501 -56.833 -23.5 -74.5c-11 -17.667 -24.667 -30.834 -41 -39.501s-35.666 -14.167 -57.999 -16.5s-47.166 -3.83301 -74.499 -4.5z" />
    <glyph glyph-name="two" unicode="2" horiz-adv-x="556" 
d="M497 0l-0.00683594 58.0029h-389c4 23.333 14 44.833 30 64.5s34.5 37.834 55.5 54.501s42.833 31.834 65.5 45.501s42.334 26.167 59.001 37.5c23.334 14.667 45.501 30.5 66.501 47.5c21.001 17 39.668 35.5 56.001 55.5s29.333 42 39 66s14.5 50.667 14.5 80
c0 32.667 -5.5 61.334 -16.5 86c-11 24.667 -26.333 45.167 -45.999 61.5c-19.667 16.333 -42.667 28.666 -69 36.999s-54.833 12.5 -85.5 12.5c-38 -0.00292969 -71.167 -6.16992 -99.5 -18.501c-28.333 -12.335 -51.833 -29.502 -70.5 -51.5
c-18.667 -22.001 -32.5 -48.168 -41.5 -78.501s-13.167 -63.5 -12.5 -99.5h63c-0.666992 26 1.83301 50.667 7.5 74s14.834 44 27.501 62c12.667 18.001 29.167 32.334 49.5 42.999c20.333 10.6689 44.833 16.002 73.5 15.999
c21.334 -0.00488281 41.501 -3.17188 60.501 -9.5c19 -6.33789 35.667 -15.6709 50 -27.999c14.334 -12.333 25.667 -27.333 34 -45c8.33496 -17.667 12.502 -37.834 12.5 -60.501c-0.00195312 -28 -4.83496 -52.167 -14.5 -72.5
c-9.66699 -20.333 -24.167 -40.166 -43.5 -59.499s-41.166 -37.5 -65.499 -54.5s-48.833 -33.667 -73.5 -50s-48.667 -33.333 -72 -51s-44.333 -37.167 -63 -58.5s-33.667 -45.333 -45 -72s-17.333 -57.334 -18 -92.001h461z" />
    <glyph glyph-name="three" unicode="3" horiz-adv-x="556" 
d="M96 223l-63.0068 -0.00390625c-2.66699 -38 1.5 -71.667 12.5 -101s27.333 -54 49 -74s47.667 -35.333 78 -46s63.5 -16 99.5 -16c32 0 62.667 4.5 92 13.5c29.334 9 55.001 22.5 77.001 40.5s39.5 40.167 52.5 66.5s19.5 56.833 19.5 91.5c0 46 -12.5 84.5 -37.5 115.5
c-25 31.001 -60.5 50.168 -106.5 57.501v2c38 9.33398 67.167 28.001 87.5 56.001c20.335 28 30.502 61 30.501 99c0 31.333 -6.16699 58.166 -18.5 80.499s-28.666 40.666 -48.999 54.999s-43.5 25 -69.5 32s-52.667 10.5 -80 10.5c-34 0 -64.667 -5.83301 -92 -17.5
s-50.5 -27.667 -69.5 -48c-19 -20.334 -33.667 -44.501 -44 -72.5c-10.333 -28 -15.5 -58.667 -15.5 -92h63c-0.666992 26.001 2.33301 49.834 9 71.5c6.66699 21.667 16.834 40.334 30.501 56c13.667 15.6689 30.5 27.8359 50.5 36.5c20 8.67188 43 13.0049 69 13
c21.334 0 41.167 -2.5 59.5 -7.5c18.334 -5 34.501 -13 48.5 -24c14 -11.001 25 -24.668 33 -41c8 -16.334 12 -36.167 12 -59.499c-0.00195312 -22 -4.33496 -41 -13 -57c-8.66699 -16 -19.834 -29.167 -33.5 -39.5c-13.667 -10.333 -29 -18 -45.999 -23
c-17 -5 -33.5 -7.5 -49.5 -7.5h-53v-53h53c23.334 0 45.167 -3 65.5 -9c20.334 -6 38.167 -15.167 53.5 -27.5s27.333 -27.666 36 -45.999s13 -40.166 13 -65.499c0 -24.667 -5 -46.667 -15 -66s-23.333 -35.666 -39.999 -48.999c-16.667 -13.333 -35.667 -23.333 -57 -30
s-43.666 -10 -66.999 -10c-28 0 -53.167 4.5 -75.5 13.5s-41 21.5 -56 37.5s-26.333 35.333 -34 58s-10.834 48 -9.5 76z" />
    <glyph glyph-name="four" unicode="4" horiz-adv-x="556" 
d="M353 227h-266l264 381h2v-381zM30 235v-61h323v-174h58v174h105v53h-105v473h-57z" />
    <glyph glyph-name="five" unicode="5" horiz-adv-x="556" 
d="M99 200l-63.002 -0.00195312c0.666992 -33.333 7 -63.333 19 -90s28.167 -49.167 48.5 -67.5s44.333 -32.333 72 -42s57.834 -14.5 90.501 -14.5c33.333 0 64.833 5.83301 94.5 17.5s55.5 28 77.5 49s39.333 46 52 75s19 60.5 19 94.5c0 35.333 -5.5 67.833 -16.5 97.5
s-26.667 55.167 -47 76.5c-20.333 21.334 -45 38.001 -74 50.001s-61.5 18 -97.5 18c-28 0 -55.333 -5.66699 -82 -17s-48.667 -27.333 -66 -48l-2 2l45 232h306v58h-350l-68 -363h54c17.333 26.667 39.666 47.167 66.999 61.5c27.333 14.334 57 21.501 89 21.5
c26 0 50 -4.66699 72 -14s40.833 -22.166 56.5 -38.499s28 -35.5 37 -57.5s13.5 -46 13.5 -72c0 -25.333 -4 -49.5 -12 -72.5s-19.667 -43.333 -35 -61s-33.666 -31.667 -54.999 -42s-45.666 -15.5 -72.999 -15.5c-24 0 -46.333 3.83301 -67 11.5s-38.667 18.667 -54 33
s-27.5 31.5 -36.5 51.5s-13.833 42 -14.5 66z" />
    <glyph glyph-name="six" unicode="6" horiz-adv-x="556" 
d="M442 523l62.998 -0.000976562c-7.33301 62 -29.333 108 -66 138s-86.334 45 -149.001 45c-38 -0.00292969 -70.667 -6.66992 -98 -20.001c-27.333 -13.335 -50.166 -30.668 -68.499 -52c-18.333 -21.334 -33 -45.167 -44 -71.5c-11 -26.334 -19.5 -52.334 -25.5 -78
c-6 -25.667 -9.83301 -49.834 -11.5 -72.5c-1.66699 -22.667 -2.5 -41 -2.5 -54.999c0 -68.667 4.83301 -126.5 14.5 -173.5s24.5 -85.167 44.5 -114.5s45.333 -50.5 76 -63.5s67.334 -19.5 110.001 -19.5c34.667 0 66.5 5.83301 95.5 17.5s54 28 75 49s37.333 46 49 75
c11.6689 29 17.502 60.5 17.5 94.5c0 34 -5.5 65.333 -16.5 94s-26.5 53.334 -46.5 74.001s-44.167 36.834 -72.5 48.501s-60.166 17.5 -95.499 17.5c-40 0 -76.833 -10.667 -110.5 -32s-58.834 -49.333 -75.501 -84h-2c0 32 2.33301 66.167 7 102.5s14 70.166 28 101.499
s33.667 57.333 59 78c25.333 20.6689 58.333 31.002 99 31c40.667 0 73.834 -12 99.501 -36s41.167 -55.333 46.5 -94zM289.998 402.999c26.667 -0.00195312 50.499 -4.83496 71.499 -14.499c21 -9.66699 38.667 -22.834 53 -39.5c14.333 -16.667 25.333 -36.334 33 -59.001
s11.5 -46.667 11.5 -72c0 -24 -4 -47 -12 -69s-19.5 -41.167 -34.5 -57.5s-32.667 -29.333 -53 -39s-43.166 -14.5 -68.499 -14.5c-30.667 0 -57 4.66699 -79 14s-40.167 22.166 -54.5 38.499s-24.833 35.5 -31.5 57.5s-10 45.333 -10 70c0 26 3.83301 50.167 11.5 72.5
s19 41.833 34 58.5s33.333 29.834 55 39.501s46.167 14.5 73.5 14.5z" />
    <glyph glyph-name="seven" unicode="7" horiz-adv-x="556" 
d="M51 691l0.000976562 -58h387c-48.667 -55.333 -90.167 -108.333 -124.5 -159s-63 -101.167 -86 -151.5s-40.667 -101.833 -53 -154.5c-12.334 -52.667 -20.501 -108.667 -24.501 -168h68c4 81.333 16.833 155.833 38.5 223.5s47 128 76 181s58.833 98.667 89.5 137
s57 68.833 79 91.5v58h-450z" />
    <glyph glyph-name="eight" unicode="8" horiz-adv-x="556" 
d="M278 401c-18.667 -0.666992 -37.002 1.33203 -55.002 5.99902s-34 12.334 -48 23.001s-25.333 24.334 -34 41.001s-13 36.667 -13 60c0 20 4.16699 37.667 12.5 53s19.5 28 33.5 38s30 17.667 48 23s36.667 8 56 8c21.334 -0.00488281 41.001 -2.67188 59.001 -8
c18 -5.33691 33.667 -13.0039 47 -23c13.333 -10.001 23.833 -22.668 31.5 -38c7.66699 -15.334 11.5 -33.001 11.5 -53c0 -22.667 -4.16699 -42.334 -12.5 -59c-8.33301 -16.668 -19.333 -30.335 -33 -41.001c-13.667 -10.668 -29.5 -18.501 -47.499 -23.5
c-18 -5 -36.667 -7.16699 -56 -6.5zM489.998 530.999c0 30 -6.1709 55.998 -18.5039 77.998s-28.666 40.167 -48.999 54.5s-43.166 25 -68.499 32s-51 10.5 -77 10.5s-51.667 -3.5 -77 -10.5c-25.333 -7.00098 -48 -17.668 -68 -32c-20 -14.335 -36.167 -32.502 -48.5 -54.5
c-12.333 -22 -18.5 -48 -18.5 -78c0 -38.667 9.83301 -71.167 29.5 -97.5s47.834 -45.166 84.501 -56.499v-2c-44 -8.00098 -78.333 -28.334 -103 -61c-24.667 -32.667 -37.667 -72 -39 -118c0 -35.333 6.33301 -66.166 19 -92.499s30 -48.166 52 -65.499
s47.667 -30.333 77 -39s60.333 -13 93 -13c33.334 0 64.501 4.33301 93.501 13s54.5 21.667 76.5 39s39.333 39.166 52 65.499c12.6689 26.333 19.002 57.166 19 92.499c-0.000976562 48 -12.334 87.5 -37 118.5c-24.667 31.001 -60 51.168 -106 60.501v2
c36 10.667 64 29.5 84 56.5s30 59.5 30 97.5zM277.994 37.9971c-24.667 0 -47.832 3.33203 -69.499 9.99902s-40.5 16.5 -56.5 29.5s-28.667 29.5 -38 49.5s-14 43 -14 69c0 25.333 4.83301 47.666 14.5 66.999c9.66699 19.334 22.5 35.501 38.5 48.501
s34.833 22.5 56.5 28.5c21.667 6.00098 44.5 8.66797 68.5 8c23.333 0.666992 45.833 -2.16602 67.5 -8.49902s40.667 -16 57 -29s29.333 -29 39 -48s14.5 -41.167 14.5 -66.5c0 -26.667 -4.66699 -50 -14 -70s-22 -36.5 -38 -49.5c-16.001 -13 -34.834 -22.667 -56.5 -29
c-21.667 -6.33301 -44.834 -9.5 -69.501 -9.5z" />
    <glyph glyph-name="nine" unicode="9" horiz-adv-x="556" 
d="M114 168l-63.0049 -0.000976562c7.33301 -62 29.333 -107.833 66 -137.5s86.334 -44.5 149.001 -44.5c38 0 70.667 6.66699 98 20c27.334 13.333 50.167 30.5 68.5 51.5c18.334 21 33.001 44.667 44.001 71s19.5 52.333 25.5 78s9.83301 49.834 11.5 72.501
c1.68262 22.667 2.51562 41 2.5 55c-0.00292969 68 -4.83594 125.667 -14.5 173c-9.66699 47.333 -24.5 85.833 -44.499 115.5c-20 29.667 -45.333 51 -75.999 63.999c-30.667 13 -67.334 19.5 -110.001 19.5c-34.667 0 -66.5 -6 -95.5 -18s-54 -28.5 -75 -49.5
s-37.333 -46 -49 -75s-17.5 -60.5 -17.5 -94.5s5.5 -65.333 16.5 -93.999c11 -28.667 26.5 -53.334 46.5 -74.001s44.333 -36.834 73 -48.5c28.667 -11.667 60.334 -17.5 95.001 -17.5c40 0 76.833 10.667 110.5 32s58.834 49.333 75.501 84h2
c-0.00488281 -32 -2.33789 -66.167 -6.99902 -102.5c-4.66797 -36.333 -14.001 -70.166 -28 -101.499c-14 -31.333 -33.5 -57.333 -58.5 -78s-58.167 -31 -99.5 -31c-40.667 0 -73.834 12 -99.501 36s-41.167 55.333 -46.5 94zM265.995 287.999
c-26.667 0 -50.502 4.83105 -71.502 14.498s-38.667 22.834 -53 39.501s-25.333 36.334 -33 59.001s-11.5 46.667 -11.5 72c0 24 4 47 12 69s19.5 41.167 34.5 57.5s32.833 29.333 53.5 39c20.667 9.67188 43.334 14.5049 68.001 14.5
c30.667 -0.00488281 57 -4.67188 79 -14c22 -9.33594 40.167 -22.1689 54.5 -38.5c14.333 -16.333 24.833 -35.333 31.5 -57s10 -45.167 10 -70.5c-0.00292969 -26 -3.83594 -50.167 -11.5 -72.5c-7.66699 -22.333 -19 -41.833 -34 -58.5s-33.333 -29.834 -54.999 -39.5
c-21.667 -9.66797 -46.167 -14.501 -73.5 -14.5z" />
    <glyph glyph-name="colon" unicode=":" horiz-adv-x="278" 
d="M97 0h84v106h-84v-106zM97 394h84v106h-84v-106z" />
    <glyph glyph-name="semicolon" unicode=";" horiz-adv-x="278" 
d="M97 394h84v106h-84v-106zM181 106l-84 0.00195312v-106h42c0.666992 -7.33301 0.166992 -15.833 -1.5 -25.5s-4.5 -19 -8.5 -28s-9 -17.167 -15 -24.5s-13 -12.333 -21 -15v-43c14.667 4 27.5 10.667 38.5 20s20.167 20.166 27.5 32.499s12.833 25.666 16.5 39.999
c3.66797 14.333 5.50098 28.833 5.5 43.5v106z" />
    <glyph glyph-name="less" unicode="&#x3c;" horiz-adv-x="600" 
d="M554 -7v54l-446 206l446 206v55l-508 -234v-54z" />
    <glyph glyph-name="equal" unicode="=" horiz-adv-x="600" 
d="M552 128v53h-503v-53h503zM552 325v53h-503v-53h503z" />
    <glyph glyph-name="greater" unicode="&#x3e;" horiz-adv-x="600" 
d="M492 253l-446 -206v-54l508 233v54l-508 234v-55z" />
    <glyph glyph-name="question" unicode="?" horiz-adv-x="537" 
d="M231 106v-106h84v106h-84zM54 494l62.998 0.00195312c-0.666992 26 2.33301 50 9 72s16.667 41.167 30 57.5s30.333 29.166 51 38.499s44.334 14 71.001 14c19.334 0 37.667 -3.33301 55 -10c17.334 -6.66699 32.501 -15.834 45.5 -27.501
c13 -11.667 23.333 -25.834 31 -42.501s11.5 -35 11.5 -55c0 -26 -6.16699 -49.667 -18.5 -71s-27.833 -40.666 -46.5 -57.999c-21.333 -19.333 -39.5 -36.666 -54.5 -51.999s-27 -31.333 -36 -48s-15.5 -35.334 -19.5 -56.001
c-4.00098 -20.667 -5.66797 -46.334 -5 -77.001h63c0.666992 30.667 2 54.167 4 70.5c2 16.334 6 30.167 12 41.5c6.00098 11.333 15.168 22.833 27.501 34.5s28.833 27.834 49.5 48.501c25.334 24 46.167 49 62.499 75c16.335 26 24.502 57.667 24.501 95
c-0.000976562 29.333 -5.33398 55.333 -16 78c-10.667 22.668 -25.334 42.001 -44 58c-18.667 16 -40.167 28.167 -64.5 36.5s-50.5 12.5 -78.5 12.5c-36 -0.00292969 -68 -5.66992 -96 -17c-28 -11.335 -51.833 -27.168 -71.5 -47.5
c-19.667 -20.334 -34.5 -45.001 -44.5 -74c-10 -29 -15 -61.167 -15 -96.5z" />
    <glyph glyph-name="at" unicode="@" horiz-adv-x="800" 
d="M518 256l96.001 288.001h-53l-25 -65c-11.334 30 -26.334 51.5 -45 64.5c-18.667 13 -39 19.5 -61 19.5c-35.333 0 -67.666 -8.5 -96.999 -25.5s-54.333 -39.333 -75 -66.999c-20.667 -27.667 -36.667 -58.667 -48 -93c-11.334 -34.333 -17.001 -68.833 -17.001 -103.5
c0 -20 3 -38.667 9 -56s14.667 -32.666 26 -45.999s25.166 -23.833 41.499 -31.5s34.833 -11.5 55.5 -11.5c25.334 0 49.001 7 71.001 21s40.667 29 56 45h2c2 -22 9.33301 -38.667 22 -50s27.667 -17 45 -17c28.001 0 55.834 7.5 83.5 22.5
c27.667 15 52.5 35.667 74.499 62c22.002 26.333 39.835 57.166 53.5 92.499c13.6699 35.334 20.5029 73.001 20.5 113.001c-0.00390625 46 -8.6709 88 -26 126c-17.334 38.001 -41.167 70.834 -71.5 98.5c-30.334 27.667 -66.167 49 -107.499 63.999
c-41.333 15 -86 22.5 -134 22.5c-50.667 0 -98.334 -9.5 -143.001 -28.5s-83.667 -45 -117 -78s-59.5 -72 -78.5 -117s-28.5 -93.5 -28.5 -145.5c0 -52.667 9.16699 -101.834 27.5 -147.501s44 -85.334 77 -119.001s72.167 -60 117.5 -79s95 -28.5 149 -28.5
c31.334 0 62.167 4 92.5 12s59 19.667 86 35s51.667 34 74 56s41.166 46.667 56.499 74h-51c-14.667 -20.667 -31.667 -39.167 -51 -55.5s-40.333 -30.166 -63 -41.499s-46.167 -20.166 -70.5 -26.499s-48.833 -9.5 -73.5 -9.5c-45.333 0 -87.5 8.33301 -126.5 25
s-72.667 39.5 -101 68.5s-50.5 63.167 -66.5 102.5c-16 39.334 -24 81.667 -24 127c0 46 7.66699 89.167 23 129.5s37 75.333 65 105s61.333 53.167 100 70.5s81.334 26 128.001 26c38.667 0 75.167 -6 109.5 -18c34.333 -12.002 64.5 -29.1689 90.5 -51.5
c26 -22.333 46.5 -49.833 61.5 -82.5s22.5 -69.667 22.5 -111c-0.00488281 -28 -4.67188 -56.667 -14 -86c-9.33594 -29.333 -21.6689 -56 -37 -80c-15.333 -24 -33.333 -43.667 -54 -59c-20.667 -15.334 -42 -23.001 -64 -23.001c-8 0.000976562 -13.833 2.33398 -17.5 7
c-3.66699 4.66699 -5.66699 10.834 -6 18.5c-0.333008 7.66699 0.5 16.5 2.5 26.5s4.66699 20.333 8 30.999zM426.001 510.001c10.001 0 19.667 -2.66699 28.999 -8c9.33398 -5.33301 17.667 -12.333 24.999 -21c7.33301 -8.66797 13.333 -18.501 18 -29.5
c4.66699 -11 7 -22.5 7 -34.5c-0.00292969 -22 -4.33594 -46.667 -13 -74c-8.66699 -27.333 -20.5 -52.833 -35.5 -76.5s-32.5 -43.667 -52.5 -60c-20 -16.334 -41.667 -24.501 -65 -24.501c-24 0 -43.833 8.66699 -59.499 26c-15.667 17.333 -23.5 41 -23.499 71
c0 23.334 4 48.501 12 75.501s19.5 52 34.5 75s33 42.167 54 57.5c21 15.334 44.167 23.001 69.5 23z" />
    <glyph glyph-name="A" unicode="A" horiz-adv-x="630" 
d="M173 280l143 366l138 -366h-281zM281 714l-287 -714h72l86 222h325l87 -222h73l-280 714h-76z" />
    <glyph glyph-name="B" unicode="B" horiz-adv-x="667" 
d="M140 401v255h234c107.333 0 161 -44.667 161 -134c0 -16.667 -3.33301 -32.334 -10 -47c-6.66699 -14.667 -16.667 -27.5 -30 -38.5s-30 -19.667 -50 -26s-43.667 -9.5 -71 -9.5h-234zM72 714l-0.00195312 -713.998h302c38.667 0 71.834 3.5 99.501 10.5s51 16 70 27
s34.167 23.833 45.5 38.5s20 29.5 26 44.5s10 29.667 12 44s3 27.166 3 38.499c-0.000976562 46.667 -13.668 85.834 -41 117.501c-27.334 31.667 -64.001 50.5 -110 56.5v2c18.667 4 35.5 11 50.5 21s28 22.167 39 36.5s19.5 30.333 25.5 48s9 35.834 9 54.5
c0 33.333 -6.33301 61.166 -19 83.499s-29.5 40.333 -50.5 54c-21 13.6689 -45.333 23.3359 -72.999 29c-27.667 5.67188 -56.5 8.50488 -86.5 8.49902h-302zM139.998 58.002v284.999h234c60.667 0 107.167 -11.5 139.5 -34.5s48.5 -57.5 48.5 -103.5
c0 -28.667 -5 -52.5 -15 -71.5c-10.001 -19 -23.668 -34.167 -41 -45.5c-17.333 -11.333 -37.333 -19.166 -60 -23.499s-46.667 -6.5 -72 -6.5h-234z" />
    <glyph glyph-name="C" unicode="C" horiz-adv-x="704" 
d="M594 498l68.002 0.00195312c-4.66699 37.333 -15.834 70.333 -33.501 99c-17.667 28.668 -39.667 52.835 -66 72.5c-26.334 19.6689 -55.667 34.502 -88 44.5c-32.333 10 -65.5 15 -99.5 15c-56 -0.00292969 -105.167 -10.1699 -147.5 -30.5
c-42.333 -20.334 -77.5 -47.667 -105.5 -82s-49 -73.833 -63 -118.5s-21 -91.667 -21 -141s7 -96.333 21 -141s35 -84 63 -118s63.167 -61.167 105.5 -81.5s91.5 -30.5 147.5 -30.5c42 0 80.167 6.66699 114.5 20s64.166 32.333 89.499 57s46 54.667 62 90
c16.0029 35.333 26.3359 75 31 119h-68c-3.33594 -32 -11.0029 -61.833 -23.001 -89.5c-12.001 -27.667 -27.668 -51.834 -47 -72.501c-19.335 -20.667 -42.335 -37 -69 -49c-26.667 -12 -56.667 -18 -90 -18c-47.333 0 -88 9 -122 27s-61.833 41.833 -83.5 71.5
s-37.667 63.334 -48 101.001s-15.5 75.834 -15.5 114.501c0 39.334 5.16699 77.667 15.5 115c10.333 37.334 26.333 70.834 48 100.5c21.667 29.667 49.5 53.5 83.5 71.499c34 18 74.667 27 122 27c26 0 50.833 -3.83301 74.5 -11.5s45.334 -18.834 65.001 -33.501
s36.334 -32.834 50 -54.501c13.6689 -21.667 23.502 -46.167 29.5 -73.5z" />
    <glyph glyph-name="D" unicode="D" horiz-adv-x="685" 
d="M72 714v-714h247c108.667 2.66699 190.5 33.167 245.5 91.5s82.5 146.833 82.5 265.5s-27.5 207.167 -82.5 265.5s-136.833 88.833 -245.5 91.5h-247zM140 58v598h145c51.333 0 95.5 -5.5 132.5 -16.5s67.5 -28.5 91.5 -52.5s41.667 -55 53 -93s17 -83.667 17 -137
c-0.00195312 -53.333 -5.66895 -99 -17 -137c-11.335 -38 -29.002 -69 -53 -93c-24 -24 -54.5 -41.5 -91.5 -52.5s-81.167 -16.5 -132.5 -16.5h-145z" />
    <glyph glyph-name="E" unicode="E" horiz-adv-x="593" 
d="M72 714v-714h498v58h-430v282h398v58h-398v258h425v58h-493z" />
    <glyph glyph-name="F" unicode="F" horiz-adv-x="537" 
d="M72 714v-714h68v340h342v58h-342v258h385v58h-453z" />
    <glyph glyph-name="G" unicode="G" horiz-adv-x="741" 
d="M682 0l0.000976562 363.001h-303v-58h243c0.666992 -38 -4.33301 -73 -15 -105s-26.667 -59.667 -48 -83c-21.334 -23.333 -47.501 -41.5 -78.5 -54.5c-31 -13 -66.167 -19.5 -105.5 -19.5c-47.333 0 -88 9 -122 27s-61.833 41.833 -83.5 71.5
s-37.667 63.334 -48 101.001s-15.5 75.834 -15.5 114.501c0 39.334 5.16699 77.667 15.5 115c10.333 37.334 26.333 70.834 48 100.5c21.667 29.667 49.5 53.5 83.5 71.499c34 18 74.667 27 122 27c34 0 64.667 -5.5 92 -16.5c27.334 -11.001 50.834 -25.168 70.5 -42.5
c19.668 -17.334 35.335 -36.501 47 -57.5c11.6689 -21 18.502 -41.833 20.5 -62.5h68c-6.66699 39.333 -19 73.666 -37 102.999s-40 54 -66 74c-26.001 20 -55.668 35 -89.001 45s-68.666 15 -105.999 15c-56 -0.00292969 -105.167 -10.1699 -147.5 -30.5
c-42.333 -20.334 -77.5 -47.667 -105.5 -82s-49 -73.833 -63 -118.5s-21 -91.667 -21 -141s7 -96.333 21 -141s35 -84 63 -118s63.167 -61.167 105.5 -81.5s91.5 -30.5 147.5 -30.5c26 0 51.167 2.66699 75.5 8c24.334 5.33301 47.167 13.833 68.5 25.5
s40.833 26.667 58.5 45c17.668 18.333 32.501 40.166 44.499 65.499h2l9 -130h49z" />
    <glyph glyph-name="H" unicode="H" horiz-adv-x="704" 
d="M72 714v-714h68v346h424v-346h68v714h-68v-310h-424v310h-68z" />
    <glyph glyph-name="I" unicode="I" horiz-adv-x="222" 
d="M77 714v-714h68v714h-68z" />
    <glyph glyph-name="J" unicode="J" horiz-adv-x="500" 
d="M360 714l-0.000976562 -486.001c0 -32.667 -2 -60.667 -6 -84s-11 -42.5 -21 -57.5s-23.667 -26 -41 -33s-39.333 -10.5 -66 -10.5c-35.333 0 -62.166 6.83301 -80.499 20.5s-31.5 30.167 -39.5 49.5s-12.667 39.666 -14 60.999s-2.33301 39.666 -3 54.999h-68
c0 -31.333 2.66699 -61.666 8 -90.999s15.333 -55.166 30 -77.499s35 -40.333 61 -54s59.333 -20.5 100 -20.5c38.667 0 71.167 4.33301 97.5 13c26.334 8.66699 47.667 21.667 64 39c16.334 17.333 28.167 39.333 35.5 66c7.33496 26.667 11.002 58.334 11 95.001v515h-68z
" />
    <glyph glyph-name="K" unicode="K" horiz-adv-x="648" 
d="M72 714v-714h68v245l137 127l297 -372h88l-334 419l319 295h-92l-415 -384v384h-68z" />
    <glyph glyph-name="L" unicode="L" horiz-adv-x="537" 
d="M72 714v-714h468v58h-400v656h-68z" />
    <glyph glyph-name="M" unicode="M" horiz-adv-x="833" 
d="M70 714v-714h68v617h2l245 -617h64l244 617h2v-617h68v714h-100l-246 -626l-247 626h-100z" />
    <glyph glyph-name="N" unicode="N" horiz-adv-x="704" 
d="M71 714v-714h68v604h2l416 -604h76v714h-68v-604h-2l-416 604h-76z" />
    <glyph glyph-name="O" unicode="O" horiz-adv-x="741" 
d="M102 357c0 39.334 5.16797 77.667 15.501 115c10.333 37.334 26.333 70.834 48 100.5c21.667 29.667 49.5 53.5 83.5 71.499c34 18 74.667 27 122 27s87.833 -9 121.5 -27s61.334 -41.833 83 -71.5c21.667 -29.667 37.667 -63.167 48 -100.5s15.5 -75.666 15.5 -114.999
c-0.00488281 -38.667 -5.17188 -76.834 -15.5 -114.501c-10.333 -37.667 -26.333 -71.334 -48 -101.001s-49.334 -53.5 -83.001 -71.5s-74.167 -27 -121.5 -27s-88 9 -122 27s-61.833 41.833 -83.5 71.5s-37.667 63.334 -48 101.001s-15.5 75.834 -15.5 114.501zM34.001 357
c0 -49.333 7 -96.332 21 -140.999s35 -84 63 -118s63.167 -61.167 105.5 -81.5s91.5 -30.5 147.5 -30.5s105 10.167 147 30.5s77 47.5 105 81.5s49 73.333 63 118s21 91.667 21 141s-7 96.333 -21 141s-35 84.167 -63 118.5s-63 61.666 -105 81.999s-91 30.5 -147 30.5
c-56 -0.00292969 -105.167 -10.1699 -147.5 -30.5c-42.333 -20.334 -77.5 -47.667 -105.5 -82s-49 -73.833 -63 -118.5s-21 -91.667 -21 -141z" />
    <glyph glyph-name="P" unicode="P" horiz-adv-x="630" 
d="M140 364v292h234c47.333 0 85.666 -12 114.999 -36c29.333 -24.001 44 -60.668 44 -110c-0.000976562 -49.333 -14.668 -86 -44 -110c-29.333 -24 -67.666 -36 -114.999 -36h-234zM72 714l0.00195312 -714.001h68v306h249c32 0 61 4.5 87 13.5s48.333 22.333 66.999 40
c18.668 17.667 33.001 39.167 42.999 64.5c10 25.334 15 54.001 15 86.001s-5 60.667 -15 86s-24.333 46.833 -43 64.5c-18.667 17.668 -41 31.001 -67 40c-26 9 -55 13.5 -87 13.5h-317z" />
    <glyph glyph-name="Q" unicode="Q" horiz-adv-x="741" 
d="M667 -45l33.999 42.001l-102 77c36 34.667 63 76.5 81 125.5s27 101.5 27 157.5c0 49.333 -7 96.333 -21 141s-35 84.167 -63 118.5s-63 61.666 -105 81.999s-91 30.5 -147 30.5c-56 -0.00292969 -105.167 -10.1699 -147.5 -30.5
c-42.333 -20.334 -77.5 -47.667 -105.5 -82s-49 -73.833 -63 -118.5s-21 -91.667 -21 -141s7 -96.333 21 -141s35 -84 63 -118s63.167 -61.167 105.5 -81.5s91.5 -30.5 147.5 -30.5c74.667 0 136.334 17.333 185.001 52zM547.999 113.001l-104 78.998l-35 -43l94 -71
c-37.333 -23.333 -81.333 -35 -132 -35c-47.333 0 -88 9 -122 27s-61.833 41.833 -83.5 71.5s-37.667 63.334 -48 101.001s-15.5 75.834 -15.5 114.501c0 39.334 5.16699 77.667 15.5 115c10.333 37.334 26.333 70.834 48 100.5c21.667 29.667 49.5 53.5 83.5 71.499
c34 18 74.667 27 122 27s87.833 -9 121.5 -27s61.334 -41.833 83 -71.5c21.667 -29.667 37.667 -63.167 48 -100.5s15.5 -75.666 15.5 -114.999c-0.00195312 -46 -7.16895 -90.667 -21.5 -134c-14.334 -43.333 -37.501 -80 -69.5 -110z" />
    <glyph glyph-name="R" unicode="R" horiz-adv-x="667" 
d="M140 375v281h254c52 -0.000976562 90.667 -12.668 116 -38c25.333 -25.334 38 -60.001 38 -104c-0.00585938 -22 -4.17285 -41.5 -12.5 -58.5c-8.33398 -17 -19.501 -31.5 -33.5 -43.5c-14.001 -12 -30.334 -21.167 -49 -27.5c-18.667 -6.33301 -38.334 -9.5 -59 -9.5
h-254zM72 714l-0.000976562 -714.004h68v317h258c32 1.33301 57.167 -4 75.5 -15.999c18.333 -12 32.333 -27.833 42 -47.499c9.66895 -19.667 16.002 -42 19 -67c3 -25 5.16699 -50.167 6.5 -75.5c0.683594 -7.33301 1.35059 -16 2.00098 -26
c0.683594 -10 1.5166 -20.167 2.5 -30.5c1 -10.333 2.66699 -20.333 5 -30s5.5 -17.834 9.5 -24.501h75c-7.33789 8.66699 -13.1709 20.834 -17.499 36.501c-4.33789 15.667 -7.50488 32.334 -9.5 50.001c-2 17.667 -3.33301 35.167 -4 52.5s-1.33398 32 -2.00098 44
c-1.33789 21.333 -4.1709 41.166 -8.5 59.499c-4.33301 18.334 -11.333 34.501 -21 48.501s-22.167 25.5 -37.5 34.5c-15.334 9.00098 -34.667 15.168 -58 18.501v2c46 9.33398 80.667 30.667 104 64c23.333 33.334 35 72.667 35 118c0 32.001 -5.83301 59.834 -17.5 83.5
c-11.667 23.6689 -27.334 43.002 -47.001 58c-19.667 15 -42.667 26.167 -69 33.5s-54.166 11 -83.499 11h-327z" />
    <glyph glyph-name="S" unicode="S" horiz-adv-x="630" 
d="M104 235l-68.0059 -0.00292969c-2 -44 3.83301 -81.667 17.5 -113s33.167 -57 58.5 -77s56 -34.833 92 -44.5s75 -14.5 117 -14.5s78 3.83301 108 11.5s55.167 17.667 75.5 30s36.333 26.166 48 41.499s20.667 30.5 27 45.5s10.333 29.167 12 42.5
c1.68457 13.333 2.51758 24 2.49902 32c0 29.333 -4.83301 54.333 -14.5 75s-23 38.167 -40 52.5s-36.667 26.333 -59 36s-46.166 17.834 -71.499 24.501l-174 43c-14.667 3.33398 -28.5 7.66699 -41.5 12.999c-13 5.33301 -24.5 12.333 -34.5 21s-17.833 19.167 -23.5 31.5
c-5.66699 12.334 -8.5 26.834 -8.5 43.5c0 26.667 5 49 15 66.999c10 18 23.167 32.5 39.5 43.5s35.333 19 57 24s44.167 7.5 67.5 7.5c25.334 0 49.501 -3.5 72.501 -10.5s43.333 -17.333 61 -31s32 -30.667 43 -51c11.001 -20.334 17.168 -44.167 18.5 -71.499h68
c-0.00195312 36.667 -7.16895 68.834 -21.5 96.5c-14.334 27.668 -33.501 50.835 -57.5 69.5c-24 18.667 -52 32.667 -84 42s-65.667 14 -101 14c-50 -0.00292969 -91 -7.16992 -123 -21.5c-32 -14.333 -57.167 -31.833 -75.5 -52.5s-30.833 -42.667 -37.5 -66
c-6.66699 -23.334 -10 -43.667 -10 -60.999c0 -28 4.5 -51.667 13.5 -71s20.833 -35.666 35.5 -48.999s31.834 -24 51.501 -32s39.834 -14.667 60.501 -20l159 -39c16.667 -4 33.667 -9.16699 51 -15.5c17.334 -6.33301 33.167 -14.5 47.5 -24.5
c14.334 -10 26.001 -22.333 35.001 -37s13.5 -32 13.5 -52c0 -26 -6.33301 -48.167 -19 -66.5s-28.5 -33.333 -47.499 -45c-19 -11.667 -39.5 -20.167 -61.5 -25.5s-42.333 -8 -60.999 -8c-32.667 0 -63.334 3.16699 -92 9.5c-28.667 6.33301 -53.5 16.833 -74.5 31.5
s-37.5 34.334 -49.5 59.001s-17.667 55.334 -17 92.001z" />
    <glyph glyph-name="T" unicode="T" horiz-adv-x="556" 
d="M-4 714v-58h248v-656h68v656h249v58h-565z" />
    <glyph glyph-name="U" unicode="U" horiz-adv-x="685" 
d="M65 714l0.00292969 -457c0 -36.667 5.16699 -71.5 15.5 -104.5s26.666 -61.833 48.999 -86.5s51 -44.167 86 -58.5s77.167 -21.5 126.5 -21.5c50 0 92.5 7.16699 127.5 21.5s63.667 33.833 86 58.5s38.666 53.5 48.999 86.5s15.5 67.833 15.5 104.5v457h-68v-442
c-0.00390625 -41.333 -4.6709 -76.5 -14 -105.5c-9.33398 -29 -23.001 -52.667 -41 -71c-18 -18.333 -40 -31.666 -66 -39.999s-55.667 -12.5 -89 -12.5c-32.667 0 -62 4.16699 -88 12.5s-48 21.666 -66 39.999s-31.667 42 -41 71c-9.33398 29 -14.001 64.167 -14.001 105.5
v442h-68z" />
    <glyph glyph-name="V" unicode="V" horiz-adv-x="593" 
d="M-6 714l264 -714h79l265 714h-72l-230 -639h-2l-232 639h-72z" />
    <glyph glyph-name="W" unicode="W" horiz-adv-x="907" 
d="M0 714l198 -714h74l180 639h2l181 -639h72l197 714h-68l-163 -625h-2l-175 625h-85l-174 -625h-2l-162 625h-73z" />
    <glyph glyph-name="X" unicode="X" horiz-adv-x="574" 
d="M3 714l242 -346l-256 -368h76l220 315l217 -315h82l-258 366l244 348h-76l-209 -299l-202 299h-80z" />
    <glyph glyph-name="Y" unicode="Y" horiz-adv-x="611" 
d="M271 294v-294h68v294l282 420h-81l-234 -362l-235 362h-80z" />
    <glyph glyph-name="Z" unicode="Z" horiz-adv-x="574" 
d="M37 714v-58h438l-470 -596v-60h556v58h-480l470 596v60h-514z" />
    <glyph glyph-name="bracketleft" unicode="[" horiz-adv-x="241" 
d="M76 -190h161v53h-98v813h98v53h-161v-919z" />
    <glyph glyph-name="backslash" unicode="\" horiz-adv-x="333" 
d="M292 -14h54l-308 743h-50z" />
    <glyph glyph-name="bracketright" unicode="]" horiz-adv-x="241" 
d="M165 729h-161v-53h98v-813h-98v-53h161v919z" />
    <glyph glyph-name="asciicircum" unicode="^" horiz-adv-x="600" 
d="M44 238h58l197 390l200 -390h57l-230 453h-52z" />
    <glyph glyph-name="underscore" unicode="_" horiz-adv-x="500" 
d="M0 -124h500v50h-500v-50z" />
    <glyph glyph-name="grave" unicode="`" horiz-adv-x="185" 
d="M-30 729l131 -141h51l-105 141h-77z" />
    <glyph glyph-name="a" unicode="a" 
d="M54 358l62.999 -0.00488281c1.33301 42 14.666 72.5 39.999 91.5s58 28.5 98 28.5c18.667 0 36.167 -1.5 52.5 -4.5c16.334 -3 30.667 -8.5 43 -16.5c12.334 -8 22.001 -18.833 29 -32.499c7 -13.667 10.5 -31.167 10.5 -52.5
c-0.00292969 -14 -1.83594 -25.333 -5.5 -33.999c-3.66797 -8.66699 -8.83496 -15.5 -15.5 -20.499c-6.66699 -5 -15 -8.5 -24.999 -10.5c-10 -2 -21.667 -3.66699 -35 -5c-34 -4 -67.5 -8.16699 -100.5 -12.5s-62.667 -11.833 -89 -22.5s-47.5 -26.167 -63.5 -46.5
s-24 -48.5 -24 -84.5c0 -26 4.5 -48.5 13.5 -67.5s21.333 -34.667 37 -47s34 -21.333 55 -27s43.5 -8.5 67.5 -8.5c25.333 0 47.166 2.33301 65.499 7c18.334 4.66699 34.667 11.334 49 20.001s27.333 19.5 39 32.5s23.167 27.833 34.5 44.5h2
c0 -13.333 0.833008 -25.5 2.5 -36.5s5.16699 -20.5 10.5 -28.5s12.833 -14.167 22.5 -18.5s22.5 -6.5 38.5 -6.5c8.66699 0 15.834 0.333008 21.501 1s12.167 1.66699 19.5 3v53c-6 -2.66699 -12.667 -4 -20 -4c-24.667 0 -37 12.667 -37 38v274
c0 34.667 -5.66699 62.834 -17 84.501s-26 38.5 -44 50.5s-38.333 20.167 -60.999 24.5c-22.667 4.33301 -45.334 6.5 -68 6.5c-30 0 -57.333 -3.33301 -82 -10s-46.167 -17 -64.5 -31s-32.833 -32 -43.5 -54s-17 -48 -19 -78zM389.999 281.995l0.000976562 -81.998
c-0.00195312 -25.333 -4.83496 -48 -14.5 -68c-9.66699 -20 -22.667 -37 -39 -51s-35.5 -24.667 -57.5 -32s-45 -11 -69 -11c-14.667 0 -29 2.33301 -43 7s-26.333 11.5 -37 20.5s-19.167 19.667 -25.5 32s-9.5 26.5 -9.5 42.5c0 25.333 7.5 44.833 22.5 58.5
s34.167 24.167 57.5 31.5s49.166 12.833 77.499 16.5s55.833 7.83398 82.5 12.5c8.66699 1.33496 18.667 3.66797 30 6.99902c11.334 3.33398 19.001 8.66699 23 15.999h2z" />
    <glyph glyph-name="b" unicode="b" horiz-adv-x="574" 
d="M60 714v-713.999h58v98h2c14.667 -36 38.5 -63.667 71.5 -83s70.5 -29 112.5 -29c39.334 0 73.501 7.16699 102.501 21.5s53.167 34 72.5 59s33.666 54 42.999 87s14 67.833 14 104.5c-0.00390625 36.667 -4.6709 71.5 -14 104.5c-9.33398 33 -23.667 62 -43 87
s-43.5 44.833 -72.5 59.5c-29 14.6699 -63.167 22.0029 -102.5 22c-18.667 0 -37.334 -2.33301 -56 -7c-18.667 -4.66699 -36 -11.834 -52 -21.501s-30.167 -21.5 -42.5 -35.5c-12.333 -14.001 -21.833 -30.334 -28.5 -49h-2v296h-63zM473 258.001
c0 -26.667 -3.16602 -53.168 -9.49902 -79.501s-16.333 -49.833 -30 -70.5s-31.167 -37.5 -52.5 -50.5s-47 -19.5 -77 -19.5c-33.333 0 -61.5 6.5 -84.5 19.5s-41.667 29.833 -56 50.5c-14.334 20.667 -24.667 44.167 -31 70.5s-9.5 52.833 -9.5 79.5
s3.16699 53.167 9.5 79.5s16.666 49.833 30.999 70.5s33 37.5 56 50.5s51.167 19.5 84.5 19.5c30 0 55.667 -6.5 77 -19.5s38.833 -29.833 52.5 -50.499c13.667 -20.667 23.667 -44.167 30 -70.5c6.33496 -26.333 9.50195 -52.833 9.5 -79.5z" />
    <glyph glyph-name="c" unicode="c" 
d="M424 354l62.9961 -0.000976562c-7.33301 59.333 -30.166 103.666 -68.499 132.999s-85.166 44 -140.499 44c-39.333 0 -74.166 -7.33301 -104.499 -22s-55.833 -34.334 -76.5 -59c-20.667 -24.667 -36.334 -53.5 -47.001 -86.5s-16 -68.167 -16 -105.5
s5.33301 -72.5 16 -105.5s26.334 -61.833 47.001 -86.5s46.167 -44.167 76.5 -58.5s65.166 -21.5 104.499 -21.5c58.667 0 106.667 17.5 144 52.5s60.333 83.833 69 146.5h-63c-2.00098 -21.333 -7.33398 -41 -16 -59c-8.66699 -18 -19.667 -33.5 -33 -46.5
s-28.666 -23.167 -45.999 -30.5s-35.666 -11 -54.999 -11c-30 0 -56.333 6.33301 -79 19s-41.5 29.334 -56.5 50.001s-26.333 44.167 -34 70.5s-11.5 53.166 -11.5 80.499c0 27.334 3.83301 54.167 11.5 80.5s19 49.833 34 70.5s33.833 37.334 56.5 50.001s49 19 79 19
c42 0 74.667 -11 98 -33s39.333 -52.333 48 -90.999z" />
    <glyph glyph-name="d" unicode="d" horiz-adv-x="574" 
d="M514 0l-0.000976562 713.997h-63v-296h-2c-6.66699 18.667 -16.167 35 -28.5 49s-26.5 25.833 -42.5 35.5c-16 9.66797 -33.167 16.835 -51.5 21.501c-18.333 4.6748 -37.166 7.00781 -56.499 7c-39.333 0 -73.5 -7.33301 -102.5 -22s-53.167 -34.5 -72.5 -59.499
c-19.333 -25 -33.666 -54 -42.999 -87s-14 -67.833 -14 -104.499c0 -36.667 4.66699 -71.5 14 -104.5s23.666 -62 42.999 -87s43.5 -44.667 72.5 -59s63.167 -21.5 102.5 -21.5c18.667 0 37.5 2.66699 56.5 8s36.833 12.833 53.5 22.5s31.5 21.5 44.5 35.5
s22.833 29.333 29.5 46h2v-98h58zM100.999 257.997c0 26.667 3.16406 53.166 9.49707 79.499s16.333 49.833 30 70.5s31.167 37.5 52.5 50.5s47 19.5 77 19.5c33.334 0 61.501 -6.5 84.501 -19.5c23.001 -13 41.668 -29.833 56.001 -50.499
c14.334 -20.667 24.667 -44.167 31 -70.5c6.33496 -26.333 9.50195 -52.833 9.5 -79.5c0 -26.667 -3.16699 -53.167 -9.5 -79.5s-16.666 -49.833 -30.999 -70.5s-33 -37.5 -56 -50.5s-51.167 -19.5 -84.5 -19.5c-30 0 -55.667 6.5 -77 19.5s-38.833 29.833 -52.5 50.5
s-23.667 44.167 -30 70.5s-9.5 52.833 -9.5 79.5z" />
    <glyph glyph-name="e" unicode="e" 
d="M431 294h-334.002c2.66699 23.333 8.16699 46.166 16.5 68.499c8.33301 22.334 19.5 42.001 33.5 59.001s31 30.667 51 41c20 10.335 43 15.502 69 15.5c25.334 0 48.001 -5.16699 68.001 -15.5s37 -24 51 -41s24.833 -36.5 32.5 -58.5s11.834 -45 12.501 -69z
M96.998 241l396.998 0.00292969c1.33105 36 -2.00195 71.5 -10 106.5c-8 35 -21.167 66 -39.5 93s-42.166 48.833 -71.499 65.5c-29.333 16.6699 -64.666 25.0029 -105.999 25c-40.667 0 -75.834 -7.83301 -105.501 -23.5c-29.667 -15.668 -53.834 -36.335 -72.501 -62.001
c-18.667 -25.667 -32.5 -54.834 -41.5 -87.501s-13.5 -66 -13.5 -100c0 -36.667 4.5 -71.5 13.5 -104.5s22.833 -62 41.5 -87s42.834 -44.667 72.501 -59s64.834 -21.5 105.501 -21.5c65.333 0 115.833 16 151.5 48s60.167 77.333 73.5 136h-63c-10 -40 -28 -72 -54 -96
s-62 -36 -108 -36c-30 0 -55.667 6.33301 -77 19s-39 28.667 -53 48s-24.167 41.166 -30.5 65.499s-9.5 47.833 -9.5 70.5z" />
    <glyph glyph-name="f" unicode="f" horiz-adv-x="259" 
d="M259 463l0.000976562 53h-102v45c0.00195312 14 0.334961 27 0.999023 39c0.666992 12 3.16699 22.5 7.5 31.5s11.166 16.167 20.499 21.5s22.666 8 39.999 8c7.33301 0 14.666 -0.5 21.999 -1.5c7.33301 -1.03027 15.333 -2.19727 24 -3.5v54
c-10 1.33301 -19 2.33301 -27 3c-8 0.688477 -16.667 1.02148 -26 1c-25.333 -0.0078125 -46.166 -3.6748 -62.499 -11c-16.333 -7.33496 -29.166 -17.668 -38.499 -31c-9.33301 -13.333 -15.666 -29.333 -18.999 -48s-5 -39 -5 -61v-47h-88v-53h88v-463h63v463h102z" />
    <glyph glyph-name="g" unicode="g" horiz-adv-x="556" 
d="M496 42l0.00195312 474.001h-63v-89h-2c-6 14 -14.5 27.333 -25.5 40s-23.5 23.834 -37.5 33.501s-29.5 17.167 -46.5 22.5s-35.167 8 -54.5 8c-37.333 0 -70.5 -6.83301 -99.5 -20.5s-53.333 -32.334 -73 -56c-19.667 -23.667 -34.667 -51.334 -45 -83
c-10.333 -31.667 -15.5 -65.167 -15.5 -100.5c0 -36.667 4.33301 -71.167 13 -103.5s22.5 -60.5 41.5 -84.5s43.167 -42.833 72.5 -56.5s64.666 -20.5 105.999 -20.5c38 0 71.167 9.66699 99.5 29s49.833 45 64.5 77h2v-70c0 -62.667 -13 -110.667 -39 -144
s-68.333 -50 -127 -50c-17.333 -0.000976562 -34.333 1.83203 -51 5.5c-16.667 3.66699 -31.834 9.5 -45.501 17.5s-25.334 18.5 -35.001 31.5s-16.167 29.167 -19.5 48.5h-63c2 -27.333 9.5 -50.833 22.5 -70.5s29.333 -35.834 49 -48.501s41.834 -22 66.501 -28
s50 -9 76 -9c42 0 77.5 5.66699 106.5 17s52.5 27.666 70.5 48.999s31.167 47.333 39.5 78c8.33496 30.667 12.502 65 12.5 103zM267.002 59.001c-29.333 0 -54.6689 5.83105 -76.002 17.498s-39 27 -53 46s-24.333 40.833 -31 65.5s-10 50 -10 76
c0 26.667 3.16699 52.834 9.5 78.501s16.5 48.5 30.5 68.5s31.667 36.167 53 48.5c21.333 12.334 47 18.501 77 18.5s55.5 -6.33398 76.5 -19c21 -12.667 38.167 -29.334 51.5 -50c13.335 -20.667 23.002 -43.667 29.001 -69c6 -25.333 9 -50.666 9 -75.999
c0 -26 -3.5 -51.333 -10.5 -76s-17.5 -46.5 -31.5 -65.5s-31.333 -34.333 -51.999 -46c-20.667 -11.667 -44.667 -17.5 -72 -17.5z" />
    <glyph glyph-name="h" unicode="h" horiz-adv-x="537" 
d="M59 714l-0.00292969 -714.002h63v301c0.666992 25.333 4.83398 48.833 12.501 70.5s18.334 40.334 32.001 56.001s30.334 28 50.001 37s42.167 13.5 67.5 13.5c25.334 0 46.501 -4 63.501 -12s30.5 -19 40.5 -33s17 -30.5 21 -49.5s6 -39.5 6 -61.5v-322h63v332
c0 30.667 -3 58.334 -9 83.001c-6.00098 24.667 -16.334 45.5 -31 62.5c-14.667 17 -34.167 30.167 -58.5 39.5s-54.5 14 -90.5 14c-36.667 0 -70.334 -9.5 -101.001 -28.5s-52 -44.167 -64 -75.5h-2v287h-63z" />
    <glyph glyph-name="i" unicode="i" horiz-adv-x="185" 
d="M61 714v-101h63v101h-63zM61 516v-516h63v516h-63z" />
    <glyph glyph-name="j" unicode="j" horiz-adv-x="185" 
d="M61 714v-101h63v101h-63zM61 516l0.00195312 -577.999c0 -21.333 -3.33301 -39.166 -10 -53.499s-22.334 -21.5 -47.001 -21.5c-4.66699 -0.666992 -10 -0.833984 -16 -0.500977s-11.667 0.833008 -17 1.5v-52c7.33301 0 14.5 -0.333008 21.5 -1s14.167 -1 21.5 -1
c22 0 40.167 3.83301 54.5 11.5s25.666 18 33.999 31s14 28.167 17 45.5s4.5 35.666 4.5 54.999v563h-63z" />
    <glyph glyph-name="k" unicode="k" horiz-adv-x="500" 
d="M60 714v-714h63v196l102 85l204 -281h79l-235 325l220 191h-84l-286 -250v448h-63z" />
    <glyph glyph-name="l" unicode="l" horiz-adv-x="185" 
d="M61 714v-714h63v714h-63z" />
    <glyph glyph-name="m" unicode="m" horiz-adv-x="833" 
d="M60 516l-0.000976562 -516h63v288c0 27.334 3 52.501 9 75.501s15.167 43 27.5 60s28.333 30.333 48 40s42.834 14.5 69.501 14.5c20 -0.00195312 37 -3.33496 51 -10c14 -6.66797 25.167 -15.835 33.5 -27.501c8.33301 -11.667 14.333 -25.334 18 -41
c3.66699 -15.667 5.5 -32.167 5.5 -49.5v-350h63v292c0.00292969 24 2.16992 47.167 6.5 69.5c4.33301 22.334 11.833 42.167 22.5 59.5c10.667 17.334 25 31.167 43 41.5c18 10.335 40.667 15.502 68 15.5c45.333 0 77 -11.167 95 -33.5s27 -54.833 27 -97.5v-347h63v350
c0 120.667 -57 181 -171 181c-34 0 -66 -8.33301 -96 -25s-52.667 -42 -68 -76c-9.33301 34 -27.833 59.333 -55.5 76c-27.667 16.6699 -58.5 25.0029 -92.5 25c-42 0 -76.5 -9 -103.5 -27s-48.833 -43 -65.5 -75h-3v87h-58z" />
    <glyph glyph-name="n" unicode="n" horiz-adv-x="537" 
d="M59 516l-0.00292969 -516.002h63v301c0.666992 25.333 4.83398 48.833 12.501 70.5s18.334 40.334 32.001 56.001s30.334 28 50.001 37s42.167 13.5 67.5 13.5c25.334 0 46.501 -4 63.501 -12s30.5 -19 40.5 -33s17 -30.5 21 -49.5s6 -39.5 6 -61.5v-322h63v332
c0 30.667 -3 58.334 -9 83.001c-6.00098 24.667 -16.334 45.5 -31 62.5c-14.667 17 -34.167 30.167 -58.5 39.5s-54.5 14 -90.5 14c-36.667 0 -70.334 -9.5 -101.001 -28.5s-52 -44.167 -64 -75.5h-2v89h-63z" />
    <glyph glyph-name="o" unicode="o" horiz-adv-x="556" 
d="M278 478c30 -0.000976562 56.333 -6.33496 79 -19.001c22.667 -12.667 41.5 -29.334 56.5 -50c15 -20.667 26.333 -44.167 34 -70.5s11.5 -53.166 11.5 -80.499c-0.00292969 -27.333 -3.83594 -54.166 -11.5 -80.499c-7.66699 -26.333 -19 -49.833 -34 -70.5
c-15.001 -20.667 -33.834 -37.334 -56.5 -50.001c-22.667 -12.667 -49 -19 -79 -19s-56.333 6.33301 -79 19s-41.5 29.334 -56.5 50.001s-26.333 44.167 -34 70.5s-11.5 53.166 -11.5 80.499s3.83301 54.166 11.5 80.499s19 49.833 34 70.5s33.833 37.334 56.5 50.001
s49 19 79 19zM278 530.999c-39.333 0 -74.168 -7.33496 -104.501 -22.002s-55.833 -34.334 -76.5 -59c-20.667 -24.667 -36.334 -53.5 -47.001 -86.5s-16 -68.167 -16 -105.5s5.33301 -72.5 16 -105.5s26.334 -61.833 47.001 -86.5s46.167 -44.167 76.5 -58.5
s65.166 -21.5 104.499 -21.5c39.334 0 74.167 7.16699 104.5 21.5s55.833 33.833 76.5 58.5s36.334 53.5 47.001 86.5c10.6689 33 16.002 68.167 16 105.5c0 37.334 -5.33301 72.501 -16 105.501s-26.334 61.833 -47 86.5c-20.667 24.667 -46.167 44.334 -76.5 59.001
c-30.333 14.6699 -65.166 22.0029 -104.499 22z" />
    <glyph glyph-name="p" unicode="p" horiz-adv-x="574" 
d="M60 516l-0.000976562 -706h63v288h2c6.66699 -18.667 16.167 -35 28.5 -49s26.5 -25.667 42.5 -35s33.333 -16.333 52 -21s37.334 -7 56.001 -7c39.334 0 73.501 7.16699 102.501 21.5s53.167 34 72.5 59s33.666 54 42.999 87s14 67.833 14 104.5
c-0.00390625 36.667 -4.6709 71.5 -14 104.5c-9.33398 33 -23.667 62 -43 87s-43.5 44.833 -72.5 59.5c-29 14.6699 -63.167 22.0029 -102.5 22c-42 0 -79.5 -9.83301 -112.5 -29.5s-56.833 -47.5 -71.5 -83.5h-2v98h-58zM472.999 258
c0 -26.667 -3.16699 -53.168 -9.5 -79.501s-16.333 -49.833 -30 -70.5s-31.167 -37.5 -52.5 -50.5s-47 -19.5 -77 -19.5c-33.333 0 -61.5 6.5 -84.5 19.5s-41.667 29.833 -56 50.5c-14.334 20.667 -24.667 44.167 -31 70.5s-9.5 52.833 -9.5 79.5
c0 29.333 2.83301 57.333 8.5 84s15.5 50 29.5 70s32.667 36 56 48s52.333 18 87 18c30 0 55.667 -6.5 77 -19.5s38.833 -29.833 52.5 -50.499c13.667 -20.667 23.667 -44.167 30 -70.5c6.33496 -26.333 9.50195 -52.833 9.5 -79.5z" />
    <glyph glyph-name="q" unicode="q" horiz-adv-x="574" 
d="M514 -190l-0.00292969 705.998h-58v-98h-2c-6.66797 17.333 -16.501 32.833 -29.5 46.5c-13 13.667 -27.833 25.5 -44.499 35.5c-16.667 10 -34.5 17.667 -53.499 23c-19 5.33301 -37.833 8 -56.499 8c-39.333 0 -73.5 -7.33301 -102.5 -22s-53.167 -34.5 -72.5 -59.499
c-19.333 -25 -33.666 -54 -42.999 -87s-14 -67.833 -14 -104.499c0 -36.667 4.66699 -71.5 14 -104.5s23.666 -62 42.999 -87s43.5 -44.667 72.5 -59s63.167 -21.5 102.5 -21.5c19.334 0 38.167 2.33301 56.5 7c18.334 4.66699 35.501 11.667 51.5 21
c16 9.33301 30.167 21 42.5 35s21.833 30.333 28.5 49h2v-288h63zM100.997 257.998c0 26.667 3.16406 53.166 9.49707 79.499s16.333 49.833 30 70.5s31.167 37.5 52.5 50.5s47 19.5 77 19.5c33.334 0 61.501 -6.5 84.501 -19.5c23.001 -13 41.668 -29.833 56.001 -50.499
c14.334 -20.667 24.667 -44.167 31 -70.5c6.33496 -26.333 9.50195 -52.833 9.5 -79.5c0 -26.667 -3.16699 -53.167 -9.5 -79.5s-16.666 -49.833 -30.999 -70.5s-33 -37.5 -56 -50.5s-51.167 -19.5 -84.5 -19.5c-30 0 -55.667 6.5 -77 19.5s-38.833 29.833 -52.5 50.5
s-23.667 44.167 -30 70.5s-9.5 52.833 -9.5 79.5z" />
    <glyph glyph-name="r" unicode="r" horiz-adv-x="315" 
d="M60 516l0.000976562 -516h63v275c0 27.333 4.66699 52.5 14 75.5s22.5 42.833 39.5 59.5s37.167 29.5 60.5 38.5s49.333 12.833 78 11.5v63c-46.667 2 -86.834 -8.33301 -120.501 -31s-58.5 -55 -74.5 -97h-2v121h-58z" />
    <glyph glyph-name="s" unicode="s" horiz-adv-x="481" 
d="M369 365l62.998 -0.00683594c-1.33301 28 -7 52.333 -17 73s-23.5 38 -40.5 52c-17 14.001 -36.667 24.334 -59 31c-22.333 6.6709 -46.5 10.0039 -72.5 10c-22.667 -0.00390625 -45.5 -2.6709 -68.5 -8c-23 -5.33496 -43.833 -13.668 -62.5 -25
c-18.667 -11.333 -33.834 -26.333 -45.501 -45s-17.5 -41 -17.5 -67c0 -22 3.66699 -40.5 11 -55.5s17.5 -27.667 30.5 -38s28.167 -19 45.5 -26s36.333 -13.167 57 -18.5l81 -18c14 -3.33301 27.833 -7.33301 41.5 -12s25.834 -10.5 36.501 -17.5s19.167 -15.667 25.5 -26
c6.33496 -10.333 9.50195 -23.166 9.5 -38.499c0 -18 -4.5 -33.167 -13.5 -45.5s-20.5 -22.5 -34.5 -30.5s-29.167 -13.667 -45.5 -17s-32.166 -5 -47.499 -5c-42 0 -77.167 10.833 -105.5 32.5s-43.833 53.834 -46.5 96.501h-63c5.33301 -63.333 26.833 -109.333 64.5 -138
s86.834 -43 147.501 -43c24 0 48.333 2.66699 73 8s46.834 14.166 66.501 26.499s35.834 28.333 48.501 48s19 43.5 19 71.5c-0.00292969 22.667 -4.33594 42.334 -13 59.001c-8.66699 16.667 -19.834 30.667 -33.5 42c-13.667 11.333 -29.334 20.5 -47 27.5
c-17.667 7 -35.5 11.833 -53.5 14.5l-84 19c-10.667 2.66699 -22.334 6.16699 -35.001 10.5s-24.334 9.83301 -35.001 16.5s-19.5 14.834 -26.5 24.501s-10.5 21.5 -10.5 35.5c0 16.667 3.66699 30.667 11 42c7.33301 11.335 17 20.502 29 27.501c12 7 25.167 12 39.5 15
s28.5 4.5 42.5 4.5c18 0 35 -2.16699 51 -6.5s30.167 -11.166 42.5 -20.499c12.335 -9.33301 22.168 -21.166 29.5 -35.499c7.33301 -14.333 11.333 -31.166 12 -50.499z" />
    <glyph glyph-name="t" unicode="t" horiz-adv-x="296" 
d="M160 516l0.00292969 154.999h-63v-155h-90v-53h90v-353c-0.666992 -44 7.33301 -74.167 24 -90.5s46 -24.5 88 -24.5c9.33301 0 18.666 0.333008 27.999 1s18.666 1 27.999 1v53c-18 -2 -36 -3 -54 -3c-22.667 1.33301 -36.834 7.83301 -42.501 19.5
s-8.5 27.834 -8.5 48.501v348h105v53h-105z" />
    <glyph glyph-name="u" unicode="u" horiz-adv-x="537" 
d="M478 0l-0.00390625 516h-63v-271c0 -26 -3 -51.5 -9 -76.5c-6.00098 -25 -15.334 -47.167 -28 -66.5c-12.667 -19.333 -28.667 -34.833 -48 -46.5s-42.666 -17.5 -69.999 -17.5c-50 0 -85.167 12 -105.5 36s-31.166 59.333 -32.499 106v336h-63v-335
c0 -30.667 3.33301 -58 10 -82s17.167 -44.333 31.5 -61s33 -29.5 56 -38.5s50.833 -13.5 83.5 -13.5c38.667 0 73.834 9.16699 105.501 27.5s55.834 44.833 72.501 79.5h2v-93h58z" />
    <glyph glyph-name="v" unicode="v" horiz-adv-x="463" 
d="M2 516l199 -516h67l193 516h-65l-160 -453h-2l-162 453h-70z" />
    <glyph glyph-name="w" unicode="w" horiz-adv-x="741" 
d="M8 516l166 -516h69l126 434h2l127 -434h69l166 516h-67l-132 -442h-2l-126 442h-71l-126 -442h-2l-132 442h-67z" />
    <glyph glyph-name="x" unicode="x" horiz-adv-x="481" 
d="M201 268l-200 -268h78l159 217l162 -217h80l-201 269l186 247h-79l-144 -196l-147 196h-79z" />
    <glyph glyph-name="y" unicode="y" horiz-adv-x="463" 
d="M2 516l206.001 -513.997l-22 -58c-5.33301 -12 -10.333 -23 -15 -33s-10.334 -18.5 -17.001 -25.5s-14.5 -12.5 -23.5 -16.5s-20.5 -6 -34.5 -6c-7.33301 0 -14.5 0.5 -21.5 1.5s-14.167 2.16699 -21.5 3.5v-53c5.33301 -1.99805 11.5 -3.16504 18.5 -3.50098
c7 -0.333008 16.833 -0.833008 29.5 -1.5c20 -0.000976562 36.5 1.83203 49.5 5.49902s24.333 9.66699 34 18s18.5 19.666 26.5 33.999s16.667 32.5 26 54.5l224 594h-63l-159 -440l-170 440h-67z" />
    <glyph glyph-name="z" unicode="z" horiz-adv-x="463" 
d="M91 53l341 418v45h-394v-53h314l-337 -412v-51h431v53h-355z" />
    <glyph glyph-name="braceleft" unicode="{" horiz-adv-x="333" 
d="M243 -190l50.002 0.00195312v53h-20c-10 0 -18.5 2.83301 -25.5 8.5s-12.667 13.167 -17 22.5c-4.33398 9.33301 -7.50098 20.333 -9.50098 33s-3 25.667 -3 39v140c0 27.333 -3 50.833 -9 70.5s-13 36 -21 49s-15.833 22.833 -23.5 29.499
c-7.66699 6.66699 -13.167 11 -16.5 13v2c3.33301 2 8.83301 6.33301 16.5 13s15.5 16.5 23.5 29.5s15 29.333 21 49s9 43.167 9 70.5v141c0 13.333 1 26.166 3 38.499s5.16699 23.333 9.5 33c4.33301 9.66797 10 17.335 17 23c7 5.67188 15.5 8.50488 25.5 8.5h20v53h-50
c-28 0 -49.667 -11.333 -65 -34c-15.334 -22.667 -23.001 -53 -23.001 -91v-149c0 -20 -1 -39.667 -3 -59s-5.66699 -36.5 -11 -51.5s-12.666 -27 -21.999 -36s-21.333 -13.5 -36 -13.5v-53c14.667 0 26.667 -4.5 36 -13.5s16.666 -21 21.999 -36s9 -32.167 11 -51.5
s3 -39 3 -59v-147c0 -38 7.66699 -68.333 23 -91s37 -34 65 -34z" />
    <glyph glyph-name="bar" unicode="|" horiz-adv-x="222" 
d="M85 786v-999h53v999h-53z" />
    <glyph glyph-name="braceright" unicode="}" horiz-adv-x="333" 
d="M90 729h-49.998v-53h20c10 0 18.5 -2.83301 25.5 -8.5s12.667 -13.334 17 -23.001s7.5 -20.667 9.5 -33c2 -12.3359 3 -25.1689 3 -38.5v-141c0 -27.333 3 -50.833 9 -70.5s13 -36 21 -49c8 -13.001 15.833 -22.834 23.499 -29.5
c7.66699 -6.66797 13.167 -11.001 16.5 -13v-2c-3.33301 -2.00195 -8.83301 -6.33496 -16.5 -13c-7.66699 -6.66699 -15.5 -16.5 -23.5 -29.5s-15 -29.333 -21 -49s-9 -43.167 -9 -70.5v-140c0 -13.333 -1 -26.333 -3 -39s-5.16699 -23.667 -9.5 -33s-10 -16.833 -17 -22.5
s-15.5 -8.5 -25.5 -8.5h-20v-53h50c28 0 49.667 11.333 65 34s23 53 23 91v148c0 20 1 39.667 3 59s5.66699 36.5 11 51.5s12.666 27 21.999 36s21.333 13.5 36 13.5v53c-14.667 0 -26.667 4.5 -36 13.5c-9.33398 9 -16.667 21 -22 36c-5.33398 15 -9.00098 32.167 -11 51.5
c-2 19.334 -3 39.001 -3 59.001v148c0 38.001 -7.66699 68.334 -23 91c-15.333 22.668 -37 34.001 -65 34z" />
    <glyph glyph-name="asciitilde" unicode="~" horiz-adv-x="600" 
d="M531 279l-36.002 36.002c-11.333 -17.333 -23.833 -33.166 -37.5 -47.499c-13.667 -14.334 -30.5 -21.501 -50.5 -21.501c-12.667 0 -27.334 3.33301 -44 9.99902c-16.667 6.66699 -34.667 14.334 -54 23.001c-18.667 8 -37.834 15.333 -57.5 22
c-19.667 6.66699 -38.834 10 -57.501 10c-16.667 0 -31.5 -2.5 -44.5 -7.5s-24.667 -11.5 -35 -19.5s-19.166 -17.167 -26.499 -27.5s-13.666 -20.833 -18.999 -31.5l36 -36c8 17.333 18.5 33.166 31.5 47.499s30.5 21.5 52.5 21.5c19.333 0 37.666 -3.33301 54.999 -10
c17.334 -6.66699 34.667 -14 52 -22c17.334 -8.66699 35.001 -16.334 53.001 -23.001s37 -10 57 -10c15.334 0 29.167 2.5 41.5 7.5c12.334 5 23.501 11.5 33.501 19.5s19 17.167 27 27.5s15.667 20.833 23 31.5z" />
    <glyph glyph-name="uni007F.controlDEL" horiz-adv-x="0" 
 />
    <glyph glyph-name="nonbreakingspace" unicode="&#xa0;" horiz-adv-x="278" 
 />
    <glyph glyph-name="exclamdown" unicode="&#xa1;" horiz-adv-x="241" 
d="M163 516h-84v-106h84v106zM155 15l-15 323h-38l-15 -323v-205h68v205z" />
    <glyph glyph-name="cent" unicode="&#xa2;" horiz-adv-x="556" 
d="M444 354l62.998 -0.00292969c-3.33301 28.667 -10.666 53.834 -21.999 75.501s-25.666 39.834 -42.999 54.501s-37.333 26 -60 34c-22.667 8.00586 -47 12.3389 -73 12.999v87h-39v-89c-34.667 -3.33301 -65.5 -12.833 -92.5 -28.5s-49.667 -35.667 -68 -60
s-32.166 -52.166 -41.499 -83.499s-14 -64.333 -14 -99s4.66699 -67.667 14 -99s23.166 -59.166 41.499 -83.499s41 -44.333 68 -60s57.833 -25.167 92.5 -28.5v-102h39v101c54.667 2 100 20.5 136 55.5s58 82.833 66 143.5h-63c-2 -20 -7 -38.833 -15 -56.5
s-18.167 -33 -30.5 -46s-26.5 -23.5 -42.5 -31.5s-33 -12.333 -51 -13v440c38 -1.33301 68 -12.833 90 -34.5s37 -51.5 45 -89.5zM269.998 475.997v-437.002c-26 4 -48.5 13 -67.5 27s-34.833 31 -47.5 51s-22.167 42.333 -28.5 67s-9.5 49.334 -9.5 74.001
c0 25.334 3.16699 50.167 9.5 74.5c6.33301 24.334 15.833 46.501 28.5 66.501s28.5 36.833 47.5 50.5s41.5 22.5 67.5 26.5z" />
    <glyph glyph-name="sterling" unicode="&#xa3;" horiz-adv-x="556" 
d="M46 362l-0.000976562 -31.999h81c8 -13.333 14.667 -30.333 20 -51s8 -38.667 8 -54c0 -20 -3 -38.667 -9 -56s-14.167 -33.5 -24.5 -48.5s-22.333 -29.333 -36 -43s-27.834 -26.5 -42.501 -38.5l36 -53c10 6 19 11.5 27 16.5s16 9.16699 24 12.5s16.667 6 26 8
s20.333 3 33 3c20 0 38 -2 54 -6s31.667 -8.66699 47 -14s31.333 -10 48 -14s36 -6 58 -6c30 0 56.333 5.16699 79 15.5s45 25.166 67 44.499l-32 48c-14 -15.333 -31.333 -28.5 -51.999 -39.5c-20.667 -11 -41.667 -16.5 -63 -16.5c-16.667 0 -31.667 2.16699 -45 6.5
s-27 9.16602 -41 14.499c-13.333 5.33301 -28.166 10 -44.499 14s-35.5 6 -57.5 6c-17.333 0 -34.166 -3.16699 -50.499 -9.5s-31.833 -13.166 -46.5 -20.499l-2 2c14 10.667 27.5 22.667 40.5 36s24.667 27.666 35 42.999s18.666 31.666 24.999 48.999s9.5 35.333 9.5 54
c-0.000976562 14 -2.16797 30.667 -6.5 50c-4.33398 19.334 -10.167 35.001 -17.5 47.001h142v32h-160c-6 14.667 -12.5 27.834 -19.5 39.501s-13.333 23.334 -19 35.001s-10.5 24 -14.5 37s-6 28.167 -6 45.5c0 26.667 4.66699 49.834 14 69.5
c9.33301 19.668 21.666 36.001 36.999 49c15.333 13 33 22.667 53 29s40.333 9.5 61 9.5c56 -0.00195312 98.167 -17.1689 126.5 -51.5c28.334 -34.334 42.501 -78.501 42.501 -132.501h63c1.33301 74.667 -18.334 132.834 -59.001 174.5
c-40.667 41.668 -98.334 62.501 -173 62.5c-28.667 0 -56.667 -4 -84 -12s-51.666 -20.5 -72.999 -37.5s-38.5 -38.333 -51.5 -64s-19.5 -56.5 -19.5 -92.5c0 -30 5.33301 -58.167 16 -84.5s23.667 -51.833 39 -76.5h-63z" />
    <glyph glyph-name="currency" unicode="&#xa4;" horiz-adv-x="556" 
d="M94 346c0 27.334 4.83203 52.5 14.499 75.5s22.834 43 39.501 60s36.334 30.333 59 40c22.667 9.6709 46.667 14.5039 72 14.5c25.333 0 49.333 -4.83301 72 -14.5s42.334 -23 59.001 -39.999c16.667 -17 29.834 -37 39.501 -60s14.5 -48.167 14.5 -75.5
c-0.00195312 -26.667 -4.83496 -51.667 -14.5 -75c-9.66699 -23.333 -22.834 -43.5 -39.5 -60.5c-16.667 -17 -36.334 -30.333 -59 -40c-22.667 -9.66699 -46.667 -14.5 -72 -14.5s-49.333 4.83301 -72 14.499c-22.667 9.66699 -42.334 23 -59.001 40
s-29.834 37.167 -39.501 60.5s-14.5 48.333 -14.5 75zM85.999 192.999l-57 -57l38 -38l56 56c21.333 -17.333 45.166 -31 71.499 -41s54.5 -15 84.5 -15s57.833 4.83301 83.5 14.5s48.834 23.167 69.501 40.5l55 -55l38 38l-54 54c17.334 21.333 31.001 45.166 41 71.499
c10 26.333 15 54.5 15 84.5s-5 58.167 -15 84.5c-10 26.334 -23.667 50.167 -41 71.5l54 54l-38 38l-55 -55c-21.333 17.333 -44.666 30.833 -69.999 40.5c-25.333 9.67383 -53 14.5068 -83 14.5c-30 0 -58.333 -5 -85 -15c-26.667 -10.001 -50.334 -23.668 -71.001 -41
l-56 56l-38 -38l56 -56c-36 -44 -54 -95.333 -54 -154c0 -30 4.83301 -57.667 14.5 -83s23.167 -48.666 40.5 -69.999z" />
    <glyph glyph-name="yen" unicode="&#xa5;" horiz-adv-x="556" 
d="M110 349v-45h129l6 -10v-73h-135v-45h135v-176h63v176h137v45h-137v73l6 10h131v45h-109l211 365h-69l-201 -365l-199 365h-72l210 -365h-106z" />
    <glyph glyph-name="brokenbar" unicode="&#xa6;" horiz-adv-x="222" 
d="M85 661v-250h53v250h-53zM85 161v-249h53v249h-53z" />
    <glyph glyph-name="section" unicode="&#xa7;" horiz-adv-x="556" 
d="M511 231c0 32.667 -8.50293 60.6689 -25.5029 84.002c-17 23.334 -38.167 44.001 -63.5 62c-25.333 18 -53 34.333 -83 49s-57.667 29.834 -83 45.501s-46.5 32.5 -63.5 50.5s-25.5 39.667 -25.5 65c0 16 3.16699 29.5 9.5 40.5s14.833 20.167 25.5 27.5
s22.667 12.666 36 15.999s27 5 41 5c17.333 0 33.333 -3.33301 48 -10s27.167 -15.5 37.5 -26.5c10.334 -11 18.167 -24 23.5 -39c5.33594 -15.002 7.66895 -31.1689 6.99902 -48.501h63c0 58 -16.667 102 -50 132s-78.333 45 -135 45
c-20.667 -0.00585938 -41.167 -3.17285 -61.5 -9.50098c-20.333 -6.33594 -38.5 -15.5029 -54.5 -27.5c-16 -12 -28.833 -26.833 -38.5 -44.5s-14.5 -38.167 -14.5 -61.5c0 -43.334 16.667 -79.667 50 -109c-14.667 -6 -28.667 -13.5 -42 -22.5s-25 -19.5 -35 -31.5
s-17.833 -25.167 -23.5 -39.5s-8.5 -29.833 -8.5 -46.5c0 -32.667 8.5 -60.667 25.5 -84s38.167 -44 63.5 -62s53 -34.333 83 -49s57.667 -29.834 83 -45.501c25.334 -15.667 46.501 -32.5 63.501 -50.5s25.5 -39.333 25.5 -64c0 -16 -3.16699 -29.5 -9.5 -40.5
s-14.833 -20.167 -25.5 -27.5s-22.667 -12.666 -36 -15.999s-27 -5 -41 -5c-17.333 0 -33.333 3.33301 -48 10s-27.167 15.5 -37.5 26.5s-18.166 24 -23.499 39c-5.33398 15 -7.66699 30.833 -7 47.5h-63c0 -56.667 16.667 -100.167 50 -130.5s78.333 -45.5 135 -45.5
c21.334 0 42.001 3.16699 62.001 9.5s38 15.5 54 27.5s28.833 26.833 38.5 44.5s14.5 38.167 14.5 61.5c0 42.667 -16.667 78.667 -50 108c14.667 6 28.667 13.5 42 22.5c13.334 9 25.001 19.5 35.001 31.5s17.833 25.167 23.5 39.5s8.5 29.833 8.5 46.5zM447.997 230.002
c0 -28 -8 -50.5 -24 -67.5s-36 -30.5 -60 -40.5c-21.333 14.667 -46.666 29.5 -75.999 44.5s-57.333 31 -84 48s-49.334 35.667 -68.001 56s-28 43.166 -28 68.499c0 28 7.66699 50.5 23 67.5s35 30.5 59 40.5c21.333 -14.667 46.666 -29.167 75.999 -43.5
c29.334 -14.333 57.501 -30 84.501 -47s50 -35.833 69 -56.499c19 -20.667 28.5 -44 28.5 -70z" />
    <glyph glyph-name="dieresis" unicode="&#xa8;" horiz-adv-x="185" 
d="M-29 605h67v101h-67v-101zM147 605h68v101h-68v-101z" />
    <glyph glyph-name="copyright" unicode="&#xa9;" horiz-adv-x="800" 
d="M543 435l50.999 0.00195312c-3.33301 24 -10.333 45.5 -21 64.5c-10.667 19.001 -24.334 34.834 -41.001 47.5c-16.667 12.6689 -35.5 22.3359 -56.5 29c-21 6.6709 -43.167 10.0039 -66.5 9.99902c-34 -0.00195312 -64.5 -5.66895 -91.5 -17
c-27 -11.333 -49.667 -27.333 -68 -48s-32.5 -44.834 -42.5 -72.5c-10 -27.667 -15 -58.167 -15 -91.5c0 -32.667 5 -63 15 -91s24.167 -52.333 42.5 -73s41 -36.667 68 -48s57.5 -17 91.5 -17c23.334 0 45.501 3.33301 66.501 9.99902
c21 6.66699 39.833 16.334 56.499 29.001c16.668 12.667 30.335 28.5 41.001 47.5c10.667 19 17.667 40.5 21 64.5h-51c-6 -30 -20.5 -55.167 -43.5 -75.5c-23 -20.334 -52.833 -30.501 -89.499 -30.501c-26.667 0 -50.334 4.66699 -71.001 14s-38 22.333 -52 39
s-24.5 36.167 -31.5 58.5s-10.5 46.5 -10.5 72.5s3.5 50.167 10.5 72.5s17.5 41.833 31.5 58.5s31.333 29.667 52 39s44.334 14 71.001 14c36.667 -0.666992 66.5 -11 89.5 -31s37.5 -45 43.5 -75zM713.999 357.002c0 -44.667 -7.99902 -86.334 -23.999 -125
c-16 -38.667 -38 -72.334 -66 -101.001c-28.001 -28.667 -61.168 -51.334 -99.501 -68.001s-79.833 -25 -124.5 -25c-45.333 0 -87.166 8.33301 -125.499 25s-71.5 39.334 -99.5 68.001s-49.833 62.334 -65.5 101.001s-23.5 80.334 -23.5 125.001
s7.83301 86.334 23.5 125.001s37.5 72.334 65.5 101c28 28.667 61.167 51.334 99.5 68c38.333 16.6709 80.166 25.0039 125.499 25c44.667 0 86.167 -8.33301 124.5 -25s71.5 -39.334 99.5 -68.001s50 -62.334 66 -101.001s24 -80.334 24 -125zM772 357.002
c0 52 -9.49805 100.668 -28.498 146.001c-19.001 45.333 -45.168 84.833 -78.501 118.5c-33.334 33.667 -72.667 60 -118 78.999c-45.333 19 -94.333 28.5 -147 28.5s-101.667 -9.5 -147 -28.5s-84.666 -45.333 -117.999 -79s-59.5 -73.167 -78.5 -118.5
s-28.5 -94 -28.5 -146c0 -52.667 9.5 -101.5 28.5 -146.5s45.167 -84.167 78.5 -117.5s72.666 -59.5 117.999 -78.5s94.333 -28.5 147 -28.5s101.667 9.5 147 28.5s84.666 45.167 117.999 78.5s59.5 72.5 78.5 117.5s28.5 93.833 28.5 146.5z" />
    <glyph glyph-name="ordfeminine" unicode="&#xaa;" horiz-adv-x="311" 
d="M7 597h46.9971c0.666992 24 9.33398 41.667 26.001 53s36.667 17 60 17c24 0 44.667 -4.5 62 -13.5s26 -26.833 26 -53.5c0 -11.333 -4.5 -18.833 -13.5 -22.5s-22.167 -6.5 -39.5 -8.5c-22.667 -2.00879 -44.667 -4.17578 -66 -6.50098
c-21.333 -2.33789 -40.333 -7.00488 -57 -14.001c-16.667 -7 -30.167 -17 -40.5 -30s-15.5 -31.167 -15.5 -54.5c0 -34 11 -58.5 33 -73.5s50 -22.5 84 -22.5c54.667 0 95.667 21.667 123 65h2c0 -18 2.83301 -31.833 8.49902 -41.499
c5.66699 -9.66797 18.834 -14.501 39.501 -14.5c5.33301 0 10.333 0.333008 15 1s8.66699 1.33398 12 2.00098v34c-4.00098 -2 -8.33398 -3 -12.999 -3c-15.333 0.000976562 -23.666 7.66797 -24.999 23v172c0 20.6689 -3.5 37.502 -10.5 50.5
c-7 13 -16.5 23.167 -28.5 30.5s-25.667 12.333 -41 15c-15.333 2.67773 -31.333 4.01074 -48 4c-40.667 0 -73.667 -8.5 -99 -25.5s-39 -44.833 -41 -83.5zM227.997 549l-0.000976562 -46.998c0 -14.668 -3.16699 -27.835 -9.5 -39.501
c-6.33301 -11.667 -14.833 -21.667 -25.5 -30s-23.167 -14.666 -37.5 -18.999s-29.166 -6.5 -44.499 -6.5c-8 0 -16 1.33301 -24 4s-15.333 6.66699 -22 12c-6.66699 5.33496 -12.167 11.668 -16.5 19c-4.33301 7.33301 -6.5 15.333 -6.5 24c0 14 4 24.833 12 32.5
s18.833 13.667 32.5 18s29.667 7.66602 48 9.99902s37.5 5.16602 57.5 8.49902c5.33301 1.33301 11.833 2.83301 19.5 4.5c7.66699 1.6709 12.5 4.83789 14.5 9.5h2z" />
    <glyph glyph-name="guillemotleft" unicode="&#xab;" horiz-adv-x="426" 
d="M60 244l133 -125v67l-94 89l94 89v67l-133 -125v-62zM221 244l133 -125v67l-94 89l94 89v67l-133 -125v-62z" />
    <glyph glyph-name="logicalnot" unicode="&#xac;" horiz-adv-x="600" 
d="M499 325v-214h53v267h-503v-53h450z" />
    <glyph glyph-name="uni00AD" unicode="&#xad;" horiz-adv-x="370" 
d="M60 304h250v-58h-250v58z" />
    <glyph glyph-name="registered" unicode="&#xae;" horiz-adv-x="800" 
d="M388 378l-70.0039 -0.00195312v149h97c13.334 0 26.001 -1 38.001 -3s22.833 -5.83301 32.5 -11.5s17.334 -13.167 23.001 -22.5c5.6709 -9.33301 8.50391 -21.666 8.5 -36.999c-0.00390625 -18 -3.6709 -32.167 -11 -42.5c-7.33301 -10.333 -17 -17.833 -29 -22.5
c-12 -4.66797 -25.833 -7.50098 -41.499 -8.49902c-15.667 -1 -31.5 -1.5 -47.499 -1.5zM317.996 141.998v190.998h89l121 -191h62l-128 191c14.667 2.66699 28.5 6.83398 41.5 12.501s24.5 13.334 34.5 23.001c10.002 9.66699 17.835 21.5 23.5 35.5
c5.6709 14 8.50391 30.333 8.5 49c-0.000976562 38.667 -11.168 68.167 -33.5 88.5c-22.334 20.333 -57.834 30.5 -106.5 30.5h-165v-430h53zM399.996 675.996c44.667 0 86.167 -8.33301 124.5 -25s71.5 -39.334 99.5 -68.001s50 -62.334 66 -101.001s24 -80.334 24 -125
c0 -44.667 -8 -86.334 -24 -125c-16 -38.667 -38 -72.334 -66 -101.001c-28.001 -28.667 -61.168 -51.334 -99.501 -68.001s-79.833 -25 -124.5 -25c-45.333 0 -87.166 8.33301 -125.499 25s-71.5 39.334 -99.5 68.001s-49.833 62.334 -65.5 101.001
s-23.5 80.334 -23.5 125.001s7.83301 86.334 23.5 125.001s37.5 72.334 65.5 101c28 28.667 61.167 51.334 99.5 68c38.334 16.6709 80.167 25.0039 125.5 25zM399.996 728.996c-52.667 0 -101.665 -9.49902 -146.998 -28.499s-84.666 -45.333 -117.999 -79
s-59.5 -73.167 -78.5 -118.5s-28.5 -94 -28.5 -146c0 -52.667 9.5 -101.5 28.5 -146.5s45.167 -84.167 78.5 -117.5s72.666 -59.5 117.999 -78.5s94.333 -28.5 147 -28.5s101.667 9.5 147 28.5s84.666 45.167 117.999 78.5s59.5 72.5 78.5 117.5s28.5 93.833 28.5 146.5
c0 52 -9.5 100.667 -28.5 146c-19.001 45.333 -45.168 84.833 -78.501 118.5c-33.334 33.667 -72.667 60 -118 78.999c-45.333 19 -94.333 28.5 -147 28.5z" />
    <glyph glyph-name="macron" unicode="&#xaf;" horiz-adv-x="185" 
d="M-71 634h328v45h-328v-45z" />
    <glyph glyph-name="degree" unicode="&#xb0;" horiz-adv-x="400" 
d="M95 562c0 14.668 2.66406 28.3379 7.99707 41.0029c5.33301 12.668 12.833 23.835 22.5 33.5c9.66699 9.66699 20.834 17.167 33.501 22.5s26.334 8 41.001 8c14.667 -0.00488281 28.334 -2.67188 41.001 -8c12.667 -5.33301 23.834 -12.833 33.501 -22.5
s17.167 -20.834 22.5 -33.501c5.33496 -12.667 8.00195 -26.334 8.00098 -41.001c0 -14.667 -2.66699 -28.334 -8 -41.001s-12.833 -23.834 -22.5 -33.5c-9.66699 -9.66699 -20.834 -17.167 -33.501 -22.5s-26.334 -8 -41.001 -8c-30 0 -55 10 -75 30s-30 45 -30 75z
M55.9971 562.003c0 -20 3.66699 -38.835 11 -56.502s17.5 -33 30.5 -45.999c13 -13 28.333 -23.167 46 -30.5s36.5 -11 56.5 -11c20 0.00195312 38.667 3.66895 56 11.001c17.334 7.33398 32.501 17.501 45.501 30.5c13 13 23.333 28.333 31 46
c7.66699 17.668 11.5 36.501 11.5 56.5c-0.00195312 20 -3.83496 38.667 -11.5 56c-7.66797 17.333 -18.001 32.5 -31 45.5c-13 13.0029 -28.167 23.3359 -45.5 31c-17.334 7.6748 -36.001 11.5078 -56.001 11.5c-20 0 -38.833 -3.83301 -56.5 -11.5s-33 -18 -46 -31
c-13 -13.002 -23.167 -28.1689 -30.5 -45.5c-7.33301 -17.334 -11 -36.001 -11 -56z" />
    <glyph glyph-name="plusminus" unicode="&#xb1;" horiz-adv-x="600" 
d="M49 53v-53h503v53h-503zM274 503v-180h-224v-53h224v-180h53v180h225v53h-225v180h-53z" />
    <glyph glyph-name="twosuperior" unicode="&#xb2;" horiz-adv-x="333" 
d="M24 553l47.001 -0.00292969c0 14.668 1.66699 28.835 5 42.501c3.33301 13.668 9 25.835 17 36.5c8 10.667 18.333 19.167 31 25.5s28 9.5 46 9.5c14 0 27.167 -1.83301 39.5 -5.5s23.166 -9 32.499 -16s16.833 -15.5 22.5 -25.5c5.66699 -10.001 8.5 -21.668 8.5 -35
c-0.000976562 -17.334 -3.33398 -32.001 -10 -44c-6.66699 -12 -16.334 -24 -29 -36c-19.333 -18 -41.5 -34 -66.5 -48s-48.667 -29.167 -71 -45.5s-41.333 -35.166 -57 -56.499s-23.834 -48.333 -24.501 -81h302v39h-248c4 15.333 11.333 28.833 22 40.5
s22.667 22.167 36 31.5s27 17.833 41 25.5s26.333 14.834 37 21.501c14.667 8.66699 29 18 43 28s26.333 21 37 33s19.167 25.167 25.5 39.5c6.33496 14.333 9.50195 30.5 9.50098 48.5c0 42.667 -13.833 74.167 -41.499 94.5c-27.667 20.333 -62.5 30.5 -104.5 30.5
c-52 0 -90.333 -14 -115 -42s-36.334 -65 -35.001 -111z" />
    <glyph glyph-name="threesuperior" unicode="&#xb3;" horiz-adv-x="333" 
d="M135 517v-39h35c30 0 55.833 -7 77.5 -21s32.5 -35 32.5 -63c-0.000976562 -14 -3.33398 -26.667 -10 -38c-6.66699 -11.333 -15.334 -20.833 -26 -28.5c-10.667 -7.66699 -23 -13.5 -37 -17.499c-14 -4 -28 -6 -42 -6c-36 0 -63.667 10 -83 30s-28.333 46 -27 78h-47
c-3.33301 -48 9.66699 -84.5 39 -109.5s69 -37.5 119 -37.5c22 0 42.833 2.83301 62.5 8.5s36.667 14 51 25s25.833 24.833 34.5 41.5s13 35.667 13 57c0 28 -8.16699 51.167 -24.5 69.5c-16.333 18.334 -39.5 29.501 -69.5 33.5v2c24.667 5.33398 43.667 16.334 57 33
c13.334 16.667 20.001 36.667 20 60c0 19.333 -4 36 -12 50s-18.833 25.5 -32.499 34.5c-13.667 9 -29.167 15.667 -46.5 20s-35.333 6.5 -54 6.5c-46.667 -0.000976562 -82.667 -13.168 -108 -39.5c-25.333 -26.334 -38.333 -60.501 -39 -102.5h47
c-0.666992 30 7.66602 54.667 24.999 74s42.333 29 75 29c26 -0.00292969 48.833 -6.16992 68.5 -18.501c19.667 -12.334 29.5 -31.501 29.5 -57.5c-0.000976562 -12.667 -2.83398 -23.667 -8.5 -33c-5.66699 -9.33594 -13 -17.0029 -22 -23c-9 -6 -19 -10.5 -30 -13.5
s-21.833 -4.5 -32.5 -4.5h-35z" />
    <glyph glyph-name="acute" unicode="&#xb4;" horiz-adv-x="185" 
d="M84 588l132 141h-78l-105 -141h51z" />
    <glyph glyph-name="mu" unicode="&#xb5;" horiz-adv-x="537" 
d="M478 0l-0.00292969 516h-63v-271c0 -26 -3 -51.5 -9 -76.5c-6.00098 -25 -15.334 -47.167 -28 -66.5c-12.667 -19.333 -28.667 -34.833 -48 -46.5s-42.666 -17.5 -69.999 -17.5c-50 0 -85.167 12 -105.5 36s-31.166 59.333 -32.499 106v336h-63v-706h64v210
c16 -12 34.167 -20.667 54.5 -26s41.166 -8 62.499 -8c38.667 0 73.834 9.16699 105.501 27.5s55.834 44.833 72.501 79.5h2v-93h58z" />
    <glyph glyph-name="paragraph" unicode="&#xb6;" horiz-adv-x="600" 
d="M273 328l0.00195312 -503.999h63v837h120v-837h63v890h-230c-70.667 -0.00195312 -125.5 -16.6689 -164.5 -50c-39 -33.334 -58.5 -82.001 -58.5 -146.001c0 -26 5.33301 -50.5 16 -73.5s25.167 -43.167 43.5 -60.5s40.166 -31 65.499 -41s52.666 -15 81.999 -15z" />
    <glyph glyph-name="periodcentered" unicode="&#xb7;" horiz-adv-x="278" 
d="M139 375c-15.333 -0.000976562 -29 -5.83398 -41 -17.5c-12 -11.667 -18 -25.167 -18 -40.5c0 -16 5.83301 -30 17.5 -42s25.5 -18 41.5 -18c15.333 0 29 5.83301 41 17.5s18 25.167 18 40.5c0 16 -5.83301 30 -17.5 42s-25.5 18 -41.5 18z" />
    <glyph glyph-name="cedilla" unicode="&#xb8;" horiz-adv-x="185" 
d="M126 0l-34.998 0.00390625l-61 -78l16 -15c12 5.33301 29 8 51 8c11.333 0 21.333 -3.33301 30 -10s13 -16 13 -28c0 -15.333 -5.33301 -26.333 -16 -33s-23 -10 -37 -10c-14.667 0 -29.334 1.5 -44.001 4.5s-26.334 6.16699 -35.001 9.5l-13 -32
c14 -7.33301 29 -12.666 45 -16c16 -3.33301 32 -5 48 -5.00098c12.667 0 25.5 1.66699 38.5 5s24.833 8.5 35.5 15.5s19.334 15.833 26.001 26.5s10 23.667 10 39s-3.83301 27.666 -11.5 36.999s-17.334 16.166 -29.001 20.499s-24.167 6.66602 -37.5 6.99902
s-26 -0.5 -38 -2.5z" />
    <glyph glyph-name="onesuperior" unicode="&#xb9;" horiz-adv-x="333" 
d="M35 623l0.000976562 -38.999h121v-310h47v423h-40c-3.33398 -17.333 -8.50098 -30.833 -15.501 -40.5s-15.833 -16.834 -26.5 -21.501s-23.167 -7.66699 -37.5 -9s-30.5 -2.33301 -48.5 -3z" />
    <glyph glyph-name="ordmasculine" unicode="&#xba;" horiz-adv-x="334" 
d="M167 407c-19.333 0 -36.332 3.83301 -50.999 11.5s-26.834 17.5 -36.501 29.5s-17 25.833 -22 41.5s-7.5 31.5 -7.5 47.5c0 16.001 2.5 31.834 7.5 47.5c5 15.668 12.333 29.501 22 41.5c9.66699 12.0039 21.834 21.8369 36.501 29.5
c14.667 7.67383 31.667 11.5068 51 11.499c19.333 0 36.333 -3.83301 51 -11.5s26.834 -17.5 36.5 -29.5c9.66699 -12 17 -25.833 22 -41.5s7.5 -31.5 7.5 -47.5c0 -16.001 -2.5 -31.834 -7.5 -47.5c-5.00098 -15.667 -12.334 -29.5 -22 -41.5
c-9.66699 -12.001 -21.834 -21.834 -36.501 -29.499c-14.667 -7.66895 -31.667 -11.502 -51 -11.5zM162.001 368c28 0 52.666 4.33301 73.999 13c21.334 8.66699 39.001 20.667 53.001 36s24.5 33.333 31.5 54s10.5 42.667 10.5 66s-3.5 45.333 -10.5 66
s-17.5 38.667 -31.5 54s-31.667 27.333 -53 36c-21.333 8.6748 -46 13.0078 -74 13c-26 0 -48.833 -4.33301 -68.5 -13s-36.167 -20.667 -49.5 -36s-23.5 -33.333 -30.5 -54s-10.5 -42.667 -10.5 -66c0 -23.335 3.5 -45.335 10.5 -66c7 -20.667 17.167 -38.667 30.5 -54
s29.833 -27.333 49.5 -36c19.667 -8.66797 42.5 -13.001 68.5 -13z" />
    <glyph glyph-name="guillemotright" unicode="&#xbb;" horiz-adv-x="426" 
d="M72 186v-67l133 125v62l-133 125v-67l94 -89zM233 186v-67l133 125v62l-133 125v-67l94 -89z" />
    <glyph glyph-name="onequarter" unicode="&#xbc;" horiz-adv-x="834" 
d="M478 139l162 216h2v-216h-164zM642 100v-100h47v100h68v39h-68v284h-44l-213 -284v-39h210zM48 623l0.000976562 -38.999h121v-310h47v423h-40c-3.33398 -17.333 -8.50098 -30.833 -15.501 -40.5s-15.833 -16.834 -26.5 -21.501s-23.167 -7.66699 -37.5 -9
s-30.5 -2.33301 -48.5 -3zM586.001 725.001l-453 -758h48l452 758h-47z" />
    <glyph glyph-name="onehalf" unicode="&#xbd;" horiz-adv-x="834" 
d="M489 279l47.0088 -0.00585938c0 14.667 1.66699 28.834 5 42.501s9 25.834 17 36.501c8.00195 10.667 18.335 19.167 30.999 25.5c12.668 6.33496 28.001 9.50195 45.999 9.5c14 -0.00488281 27.167 -1.83789 39.5 -5.5c12.333 -3.66699 23.166 -9 32.499 -15.999
c9.33301 -7 16.833 -15.5 22.5 -25.5c5.67188 -10 8.50488 -21.667 8.49902 -35c0 -17.333 -3.33301 -32 -10 -44s-16.334 -24 -29.001 -36c-19.334 -18 -41.501 -34 -66.5 -48c-25.001 -14 -48.668 -29.167 -71.001 -45.5s-41.333 -35.166 -57 -56.499
c-15.668 -21.333 -23.835 -48.333 -24.501 -81h302v39h-248c4.00293 15.333 11.3359 28.833 22 40.5c10.667 11.667 22.667 22.167 36 31.5s27 17.833 41 25.5c14.001 7.66699 26.334 14.834 36.999 21.501c14.668 8.66699 29.001 18 43 28c14.001 10 26.334 21 36.999 33
c10.667 12 19.167 25.167 25.5 39.5c6.33301 14.334 9.5 30.501 9.5 48.501c0 42.667 -13.833 74.167 -41.5 94.5c-27.667 20.334 -62.5 30.501 -104.5 30.5c-52 0 -90.333 -14 -115 -42s-36.334 -65 -35 -111zM48.0088 622.994l0.000976562 -38.999h121v-310h47v423h-40
c-3.33398 -17.333 -8.50098 -30.833 -15.501 -40.5s-15.833 -16.834 -26.5 -21.501s-23.167 -7.66699 -37.5 -9s-30.5 -2.33301 -48.5 -3zM586.01 724.995l-453 -758h48l452 758h-47z" />
    <glyph glyph-name="threequarters" unicode="&#xbe;" horiz-adv-x="834" 
d="M478 139l162 216h2v-216h-164zM642 100v-100h47v100h68v39h-68v284h-44l-213 -284v-39h210zM626 725l-453 -758h48l452 758h-47zM135 517v-39h35c30 0 55.833 -7 77.5 -21s32.5 -35 32.5 -63c-0.000976562 -14 -3.33398 -26.667 -10 -38
c-6.66699 -11.333 -15.334 -20.833 -26 -28.5c-10.667 -7.66699 -23 -13.5 -37 -17.499c-14 -4 -28 -6 -42 -6c-36 0 -63.667 10 -83 30s-28.333 46 -27 78h-47c-3.33301 -48 9.66699 -84.5 39 -109.5s69 -37.5 119 -37.5c22 0 42.833 2.83301 62.5 8.5s36.667 14 51 25
s25.833 24.833 34.5 41.5s13 35.667 13 57c0 28 -8.16699 51.167 -24.5 69.5c-16.333 18.334 -39.5 29.501 -69.5 33.5v2c24.667 5.33398 43.667 16.334 57 33c13.334 16.667 20.001 36.667 20 60c0 19.333 -4 36 -12 50s-18.833 25.5 -32.499 34.5
c-13.667 9 -29.167 15.667 -46.5 20s-35.333 6.5 -54 6.5c-46.667 -0.000976562 -82.667 -13.168 -108 -39.5c-25.333 -26.334 -38.333 -60.501 -39 -102.5h47c-0.666992 30 7.66602 54.667 24.999 74s42.333 29 75 29c26 -0.00292969 48.833 -6.16992 68.5 -18.501
c19.667 -12.334 29.5 -31.501 29.5 -57.5c-0.000976562 -12.667 -2.83398 -23.667 -8.5 -33c-5.66699 -9.33594 -13 -17.0029 -22 -23c-9 -6 -19 -10.5 -30 -13.5s-21.833 -4.5 -32.5 -4.5h-35z" />
    <glyph glyph-name="questiondown" unicode="&#xbf;" horiz-adv-x="537" 
d="M307 410v106h-84v-106h84zM484 29l-63.0029 -0.000976562c0.666992 -25.333 -2.33301 -49 -9 -71s-16.667 -41.167 -30 -57.5s-30.166 -29.166 -50.499 -38.499s-44.166 -14 -71.499 -14c-19.333 0 -37.666 3.33301 -54.999 10s-32.5 15.834 -45.5 27.501
s-23.333 25.834 -31 42.501s-11.5 35 -11.5 55c0 25.333 6.16699 48.666 18.5 69.999s27.833 40.666 46.5 57.999c21.333 19.333 39.333 36.666 54 51.999s26.667 31.166 36 47.499c9.33398 16.333 16.001 35 20 56c4.00195 21 5.66895 46.833 5 77.5h-63
c-0.666992 -20 -1.33398 -36.833 -2.00098 -50.499c-0.666992 -13.667 -2.16699 -25.5 -4.5 -35.5c-2.33398 -10 -5.50098 -18.667 -9.50098 -26s-9.33301 -14.833 -16 -22.5s-15 -16.167 -25 -25.5s-22 -21 -36 -35c-25.333 -24 -46.166 -49 -62.499 -75
s-24.5 -57.333 -24.5 -94c0 -29.333 5.33301 -55.333 16 -78s25.334 -42 44.001 -58s40.167 -28.167 64.5 -36.5s50.5 -12.5 78.5 -12.5c36 0 68 5.5 96 16.5s51.833 26.833 71.5 47.5s34.5 45.334 44.5 74.001s15 60.667 15 96z" />
    <glyph glyph-name="Agrave" unicode="&#xc0;" horiz-adv-x="630" 
d="M192 912l132 -141h51l-105 141h-78zM173 280l143 366l138 -366h-281zM281 714l-287 -714h72l86 222h325l87 -222h73l-280 714h-76z" />
    <glyph glyph-name="Aacute" unicode="&#xc1;" horiz-adv-x="630" 
d="M307 771l132 141h-78l-105 -141h51zM173 280l143 366l138 -366h-281zM281 714l-287 -714h72l86 222h325l87 -222h73l-280 714h-76z" />
    <glyph glyph-name="Acircumflex" unicode="&#xc2;" horiz-adv-x="630" 
d="M464 771l-114 141h-69l-114 -141h58l88 102l86 -102h65zM173 280l143 366l138 -366h-281zM281 714l-287 -714h72l86 222h325l87 -222h73l-280 714h-76z" />
    <glyph glyph-name="Atilde" unicode="&#xc3;" horiz-adv-x="630" 
d="M472 891l-38.001 0.00390625c-4.00098 -13.335 -9.83398 -24.668 -17.5 -34c-7.66699 -9.33984 -19.167 -14.0068 -34.5 -14c-9.33301 0.0195312 -18.833 2.35254 -28.5 7c-9.66797 4.66699 -20.001 9.66699 -31 15c-11 5.33301 -22.833 10.333 -35.499 15
c-12.667 4.68066 -26 7.01367 -40 7c-12.667 0 -24.334 -2.83301 -35.001 -8.5s-19.667 -13 -27 -22c-7.33301 -9.00293 -13.333 -19.1699 -18 -30.5c-4.66699 -11.335 -7.66699 -23.002 -9 -35h39c0 16.668 5 29.335 15 38c10 8.67578 22.667 13.0088 38 12.999
c8.66699 0 18 -2.33301 28 -7s20.667 -10 32 -16s23.333 -11.333 36 -16s25.667 -7 39 -7c13.334 0.00585938 25.001 2.83887 35.001 8.49902c10 5.6709 18.5 13.0039 25.5 21.999c7.00098 9 12.668 19.167 17 30.5c4.33496 11.333 7.50195 22.666 9.5 33.999z
M172.999 280.004l143 366l138 -366h-281zM280.999 714.004l-287 -714h72l86 222h325l87 -222h73l-280 714h-76z" />
    <glyph glyph-name="Adieresis" unicode="&#xc4;" horiz-adv-x="630" 
d="M193 788h68v101h-68v-101zM370 788h68v101h-68v-101zM173 280l143 366l138 -366h-281zM281 714l-287 -714h72l86 222h325l87 -222h73l-280 714h-76z" />
    <glyph glyph-name="Aring" unicode="&#xc5;" horiz-adv-x="630" 
d="M248 860c0 19.333 6.49902 35.502 19.499 48.502s29.167 19.5 48.5 19.5c19.334 0 35.501 -6.5 48.501 -19.5c13 -13.002 19.5 -29.1689 19.5 -48.501c0 -19.3359 -6.5 -35.5029 -19.5 -48.501c-13 -13 -29.167 -19.5 -48.5 -19.5s-35.5 6.5 -48.5 19.5
s-19.5 29.167 -19.5 48.5zM208.999 860.002c0 -14.667 2.83203 -28.4951 8.49805 -41.4951c5.66699 -13 13.334 -24.333 23.001 -34s21 -17.334 34 -23.001s26.833 -8.5 41.5 -8.5c14.667 0.00585938 28.5 2.83887 41.5 8.5c13 5.66797 24.333 13.335 34 23
c9.66699 9.66797 17.334 21.001 23.001 33.999c5.66699 13.002 8.5 26.835 8.5 41.5c-0.00195312 14.668 -2.83496 28.501 -8.5 41.499c-5.66699 13.002 -13.334 24.335 -23 34c-9.66699 9.66992 -21 17.3369 -34 23c-13 5.67383 -26.833 8.50684 -41.499 8.49902
c-14.667 0 -28.5 -2.83301 -41.5 -8.5s-24.333 -13.334 -34 -23.001s-17.334 -21 -23.001 -34s-8.5 -26.833 -8.5 -41.5zM172.998 280.007l143 366l138 -366h-281zM280.998 714.007l-287 -714h72l86 222h325l87 -222h73l-280 714h-76z" />
    <glyph glyph-name="AE" unicode="&#xc6;" horiz-adv-x="907" 
d="M445 284h-229l189 372h40v-372zM513 58v282h344v58h-344v258h367v58h-513l-373 -714h76l116 226h259v-226h439v58h-371z" />
    <glyph glyph-name="Ccedilla" unicode="&#xc7;" horiz-adv-x="704" 
d="M672 272l-68 0.00585938c-3.33594 -32 -11.0029 -61.833 -23.001 -89.5c-12.001 -27.667 -27.668 -51.834 -47 -72.501c-19.335 -20.667 -42.335 -37 -69 -49c-26.667 -12 -56.667 -18 -90 -18c-47.333 0 -88 9 -122 27s-61.833 41.833 -83.5 71.5
s-37.667 63.334 -48 101.001s-15.5 75.834 -15.5 114.501c0 39.334 5.16699 77.667 15.5 115c10.333 37.334 26.333 70.834 48 100.5c21.667 29.667 49.5 53.5 83.5 71.499c34 18 74.667 27 122 27c26 0 50.833 -3.83301 74.5 -11.5s45.334 -18.834 65.001 -33.501
s36.334 -32.834 50 -54.501c13.6689 -21.667 23.502 -46.167 29.5 -73.5h68c-4.66699 37.333 -15.834 70.333 -33.501 99c-17.667 28.668 -39.667 52.835 -66 72.5c-26.334 19.6689 -55.667 34.502 -88 44.5c-32.333 10 -65.5 15 -99.5 15
c-56 -0.00292969 -105.167 -10.1699 -147.5 -30.5c-42.333 -20.334 -77.5 -47.667 -105.5 -82s-49 -73.833 -63 -118.5s-21 -91.667 -21 -141c0 -46 6.33301 -90.5 19 -133.5s31.5 -81.167 56.5 -114.5s56.333 -60.833 94 -82.5s81.834 -34.5 132.501 -38.5l-51 -66l16 -15
c12 5.33301 29 8 51 8c11.333 0 21.333 -3.33301 30 -10s13 -16 13 -28c-0.000976562 -15.333 -5.33398 -26.333 -16 -33c-10.667 -6.66699 -23 -10 -37 -10c-14.667 0 -29.334 1.5 -44 4.5c-14.667 3 -26.334 6.16699 -35 9.5l-14 -32c14.667 -7.33301 30 -12.666 46 -16
c16 -3.33301 32 -5 48 -5.00098c12.667 0 25.5 1.66699 38.5 5s24.833 8.5 35.5 15.5s19.334 15.833 26.001 26.5s10 23.667 10 39c-0.00292969 15.333 -3.83594 27.666 -11.5 36.999c-7.66699 9.33301 -17.334 16.166 -29 20.499
c-11.667 4.33301 -24.167 6.66602 -37.5 6.99902s-26 -0.5 -38 -2.5l33 43h1c42 0 80.167 6.66699 114.5 20s64.166 32.333 89.499 57s46 54.667 62 90c16.0029 35.333 26.3359 75 31 119z" />
    <glyph glyph-name="Egrave" unicode="&#xc8;" horiz-adv-x="593" 
d="M173 912l132 -141h51l-105 141h-78zM72 714v-714h498v58h-430v282h398v58h-398v258h425v58h-493z" />
    <glyph glyph-name="Eacute" unicode="&#xc9;" horiz-adv-x="593" 
d="M288 771l132 141h-78l-105 -141h51zM72 714v-714h498v58h-430v282h398v58h-398v258h425v58h-493z" />
    <glyph glyph-name="Ecircumflex" unicode="&#xca;" horiz-adv-x="593" 
d="M445 771l-114 141h-69l-114 -141h58l88 102l86 -102h65zM72 714v-714h498v58h-430v282h398v58h-398v258h425v58h-493z" />
    <glyph glyph-name="Edieresis" unicode="&#xcb;" horiz-adv-x="593" 
d="M174 788h68v101h-68v-101zM351 788h68v101h-68v-101zM72 714v-714h498v58h-430v282h398v58h-398v258h425v58h-493z" />
    <glyph glyph-name="Igrave" unicode="&#xcc;" horiz-adv-x="222" 
d="M-11 912l131 -141h51l-105 141h-77zM77 714v-714h68v714h-68z" />
    <glyph glyph-name="Iacute" unicode="&#xcd;" horiz-adv-x="222" 
d="M103 771l132 141h-78l-105 -141h51zM77 714v-714h68v714h-68z" />
    <glyph glyph-name="Icircumflex" unicode="&#xce;" horiz-adv-x="222" 
d="M260 771l-114 141h-69l-113 -141h57l88 102l86 -102h65zM77 714v-714h68v714h-68z" />
    <glyph glyph-name="Idieresis" unicode="&#xcf;" horiz-adv-x="222" 
d="M-10 788h67v101h-67v-101zM166 788h68v101h-68v-101zM77 714v-714h68v714h-68z" />
    <glyph glyph-name="Eth" unicode="&#xd0;" horiz-adv-x="685" 
d="M72 714v-321h-72v-45h72v-348h247c108.667 2.66699 190.5 33.167 245.5 91.5s82.5 146.833 82.5 265.5s-27.5 207.167 -82.5 265.5s-136.833 88.833 -245.5 91.5h-247zM140 393v263h145c51.333 0 95.5 -5.5 132.5 -16.5s67.5 -28.5 91.5 -52.5s41.667 -55 53 -93
s17 -83.667 17 -137c-0.00195312 -53.333 -5.66895 -99 -17 -137c-11.335 -38 -29.002 -69 -53 -93c-24 -24 -54.5 -41.5 -91.5 -52.5s-81.167 -16.5 -132.5 -16.5h-145v290h236v45h-236z" />
    <glyph glyph-name="Ntilde" unicode="&#xd1;" horiz-adv-x="704" 
d="M509 891l-38.0029 0.00390625c-4.00098 -13.335 -9.83398 -24.668 -17.5 -34c-7.66699 -9.33984 -19.167 -14.0068 -34.5 -14c-9.33301 0.0195312 -18.833 2.35254 -28.5 7c-9.66699 4.66699 -20 9.66699 -30.999 15c-11 5.33301 -22.833 10.333 -35.499 15
c-12.667 4.68066 -26 7.01367 -40 7c-12.667 0 -24.334 -2.83301 -35 -8.5c-10.667 -5.66699 -19.667 -13 -27 -22c-7.33301 -9.00293 -13.333 -19.1699 -18 -30.5c-4.66699 -11.335 -7.66699 -23.002 -9 -35h39c0 16.668 5 29.335 15 38
c10 8.67578 22.667 13.0088 38 12.999c8.66699 0 18 -2.33301 28 -7s20.667 -10 32 -16s23.333 -11.333 36 -16s25.667 -7 39 -7c13.334 0.00585938 25.001 2.83887 35.001 8.49902c10 5.6709 18.5 13.0039 25.5 21.999c7.00098 9 12.668 19.167 17 30.5
c4.33496 11.333 7.50195 22.666 9.5 33.999zM70.9971 714.004v-714h68v604h2l416 -604h76v714h-68v-604h-2l-416 604h-76z" />
    <glyph glyph-name="Ograve" unicode="&#xd2;" horiz-adv-x="741" 
d="M247 912l132 -141h51l-105 141h-78zM102 357c0 39.334 5.16797 77.667 15.501 115c10.333 37.334 26.333 70.834 48 100.5c21.667 29.667 49.5 53.5 83.5 71.499c34 18 74.667 27 122 27s87.833 -9 121.5 -27s61.334 -41.833 83 -71.5
c21.667 -29.667 37.667 -63.167 48 -100.5s15.5 -75.666 15.5 -114.999c-0.00488281 -38.667 -5.17188 -76.834 -15.5 -114.501c-10.333 -37.667 -26.333 -71.334 -48 -101.001s-49.334 -53.5 -83.001 -71.5s-74.167 -27 -121.5 -27s-88 9 -122 27
s-61.833 41.833 -83.5 71.5s-37.667 63.334 -48 101.001s-15.5 75.834 -15.5 114.501zM34.001 357c0 -49.333 7 -96.332 21 -140.999s35 -84 63 -118s63.167 -61.167 105.5 -81.5s91.5 -30.5 147.5 -30.5s105 10.167 147 30.5s77 47.5 105 81.5s49 73.333 63 118
s21 91.667 21 141s-7 96.333 -21 141s-35 84.167 -63 118.5s-63 61.666 -105 81.999s-91 30.5 -147 30.5c-56 -0.00292969 -105.167 -10.1699 -147.5 -30.5c-42.333 -20.334 -77.5 -47.667 -105.5 -82s-49 -73.833 -63 -118.5s-21 -91.667 -21 -141z" />
    <glyph glyph-name="Oacute" unicode="&#xd3;" horiz-adv-x="741" 
d="M362 771l132 141h-78l-105 -141h51zM102 357c0 39.334 5.16797 77.667 15.501 115c10.333 37.334 26.333 70.834 48 100.5c21.667 29.667 49.5 53.5 83.5 71.499c34 18 74.667 27 122 27s87.833 -9 121.5 -27s61.334 -41.833 83 -71.5
c21.667 -29.667 37.667 -63.167 48 -100.5s15.5 -75.666 15.5 -114.999c-0.00488281 -38.667 -5.17188 -76.834 -15.5 -114.501c-10.333 -37.667 -26.333 -71.334 -48 -101.001s-49.334 -53.5 -83.001 -71.5s-74.167 -27 -121.5 -27s-88 9 -122 27
s-61.833 41.833 -83.5 71.5s-37.667 63.334 -48 101.001s-15.5 75.834 -15.5 114.501zM34.001 357c0 -49.333 7 -96.332 21 -140.999s35 -84 63 -118s63.167 -61.167 105.5 -81.5s91.5 -30.5 147.5 -30.5s105 10.167 147 30.5s77 47.5 105 81.5s49 73.333 63 118
s21 91.667 21 141s-7 96.333 -21 141s-35 84.167 -63 118.5s-63 61.666 -105 81.999s-91 30.5 -147 30.5c-56 -0.00292969 -105.167 -10.1699 -147.5 -30.5c-42.333 -20.334 -77.5 -47.667 -105.5 -82s-49 -73.833 -63 -118.5s-21 -91.667 -21 -141z" />
    <glyph glyph-name="Ocircumflex" unicode="&#xd4;" horiz-adv-x="741" 
d="M519 771l-114 141h-69l-114 -141h58l88 102l86 -102h65zM102 357c0 39.334 5.16797 77.667 15.501 115c10.333 37.334 26.333 70.834 48 100.5c21.667 29.667 49.5 53.5 83.5 71.499c34 18 74.667 27 122 27s87.833 -9 121.5 -27s61.334 -41.833 83 -71.5
c21.667 -29.667 37.667 -63.167 48 -100.5s15.5 -75.666 15.5 -114.999c-0.00488281 -38.667 -5.17188 -76.834 -15.5 -114.501c-10.333 -37.667 -26.333 -71.334 -48 -101.001s-49.334 -53.5 -83.001 -71.5s-74.167 -27 -121.5 -27s-88 9 -122 27
s-61.833 41.833 -83.5 71.5s-37.667 63.334 -48 101.001s-15.5 75.834 -15.5 114.501zM34.001 357c0 -49.333 7 -96.332 21 -140.999s35 -84 63 -118s63.167 -61.167 105.5 -81.5s91.5 -30.5 147.5 -30.5s105 10.167 147 30.5s77 47.5 105 81.5s49 73.333 63 118
s21 91.667 21 141s-7 96.333 -21 141s-35 84.167 -63 118.5s-63 61.666 -105 81.999s-91 30.5 -147 30.5c-56 -0.00292969 -105.167 -10.1699 -147.5 -30.5c-42.333 -20.334 -77.5 -47.667 -105.5 -82s-49 -73.833 -63 -118.5s-21 -91.667 -21 -141z" />
    <glyph glyph-name="Otilde" unicode="&#xd5;" horiz-adv-x="741" 
d="M527 891l-38.0029 0.00390625c-4.00098 -13.335 -9.83398 -24.668 -17.5 -34c-7.66699 -9.33984 -19.167 -14.0068 -34.5 -14c-9.33301 0.0195312 -18.833 2.35254 -28.5 7c-9.66699 4.66699 -20 9.66699 -30.999 15c-11 5.33301 -22.833 10.333 -35.499 15
c-12.667 4.68066 -26 7.01367 -40 7c-12.667 0 -24.334 -2.83301 -35 -8.5c-10.667 -5.66699 -19.667 -13 -27 -22c-7.33301 -9.00293 -13.333 -19.1699 -18 -30.5c-4.66699 -11.335 -7.66699 -23.002 -9 -35h39c0 16.668 5 29.335 15 38
c10 8.67578 22.667 13.0088 38 12.999c8.66699 0 18 -2.33301 28 -7s20.667 -10 32 -16s23.333 -11.333 36 -16s25.667 -7 39 -7c13.334 0.00585938 25.001 2.83887 35.001 8.49902c10 5.6709 18.5 13.0039 25.5 21.999c7 9 12.667 19.167 17 30.5s7.5 22.666 9.5 33.999z
M101.997 357.004c0 39.334 5.16797 77.667 15.501 115c10.333 37.334 26.333 70.834 48 100.5c21.667 29.667 49.5 53.5 83.5 71.499c34 18 74.667 27 122 27s87.833 -9 121.5 -27s61.334 -41.833 83 -71.5c21.667 -29.667 37.667 -63.167 48 -100.5
s15.5 -75.666 15.5 -114.999c-0.00488281 -38.667 -5.17188 -76.834 -15.5 -114.501c-10.333 -37.667 -26.333 -71.334 -48 -101.001s-49.334 -53.5 -83.001 -71.5s-74.167 -27 -121.5 -27s-88 9 -122 27s-61.833 41.833 -83.5 71.5s-37.667 63.334 -48 101.001
s-15.5 75.834 -15.5 114.501zM33.998 357.004c0 -49.333 7 -96.332 21 -140.999s35 -84 63 -118s63.167 -61.167 105.5 -81.5s91.5 -30.5 147.5 -30.5s105 10.167 147 30.5s77 47.5 105 81.5s49 73.333 63 118s21 91.667 21 141s-7 96.333 -21 141s-35 84.167 -63 118.5
s-63 61.666 -105 81.999s-91 30.5 -147 30.5c-56 -0.00292969 -105.167 -10.1699 -147.5 -30.5c-42.333 -20.334 -77.5 -47.667 -105.5 -82s-49 -73.833 -63 -118.5s-21 -91.667 -21 -141z" />
    <glyph glyph-name="Odieresis" unicode="&#xd6;" horiz-adv-x="741" 
d="M248 788h68v101h-68v-101zM425 788h68v101h-68v-101zM102 357c0 39.334 5.16797 77.667 15.501 115c10.333 37.334 26.333 70.834 48 100.5c21.667 29.667 49.5 53.5 83.5 71.499c34 18 74.667 27 122 27s87.833 -9 121.5 -27s61.334 -41.833 83 -71.5
c21.667 -29.667 37.667 -63.167 48 -100.5s15.5 -75.666 15.5 -114.999c-0.00488281 -38.667 -5.17188 -76.834 -15.5 -114.501c-10.333 -37.667 -26.333 -71.334 -48 -101.001s-49.334 -53.5 -83.001 -71.5s-74.167 -27 -121.5 -27s-88 9 -122 27
s-61.833 41.833 -83.5 71.5s-37.667 63.334 -48 101.001s-15.5 75.834 -15.5 114.501zM34.001 357c0 -49.333 7 -96.332 21 -140.999s35 -84 63 -118s63.167 -61.167 105.5 -81.5s91.5 -30.5 147.5 -30.5s105 10.167 147 30.5s77 47.5 105 81.5s49 73.333 63 118
s21 91.667 21 141s-7 96.333 -21 141s-35 84.167 -63 118.5s-63 61.666 -105 81.999s-91 30.5 -147 30.5c-56 -0.00292969 -105.167 -10.1699 -147.5 -30.5c-42.333 -20.334 -77.5 -47.667 -105.5 -82s-49 -73.833 -63 -118.5s-21 -91.667 -21 -141z" />
    <glyph glyph-name="multiply" unicode="&#xd7;" horiz-adv-x="600" 
d="M74 440l188 -189l-188 -189l37 -37l189 188l189 -188l37 37l-189 189l189 189l-37 37l-189 -189l-189 189z" />
    <glyph glyph-name="Oslash" unicode="&#xd8;" horiz-adv-x="741" 
d="M698 696l-25.998 22.999l-71 -78c-28 28 -60.833 49.667 -98.5 65s-81.5 23 -131.5 23c-56 -0.00292969 -105.167 -10.1699 -147.5 -30.5c-42.333 -20.334 -77.5 -47.667 -105.5 -82s-49 -73.833 -63 -118.5s-21 -91.667 -21 -141c0 -48 6.66699 -94 20 -138
s34 -83.333 62 -118l-79 -88l27 -24l76 85c28 -28 61 -49.667 99 -65s82 -23 132 -23c56 0 105 10.167 147 30.5s77 47.5 105 81.5s49 73.333 63 118s21 91.667 21 141c-0.00292969 48.667 -6.66992 95.334 -20.001 140.001c-13.335 44.667 -34.002 84 -62.001 118z
M558.002 592.999l-398 -442.999c-20 28.667 -34.667 60.834 -44 96.501s-14 72.5 -14 110.5c0 39.334 5.16699 77.667 15.5 115c10.333 37.334 26.333 70.834 48 100.5c21.667 29.667 49.5 53.5 83.5 71.499c34 18 74.667 27 122 27
c42 -0.00292969 78.333 -7.16992 109 -21.501c30.667 -14.335 56.667 -33.168 78 -56.5zM183.002 122l397 443.002c20.667 -28.667 35.667 -61 45 -97s14 -73 14 -111c-0.00488281 -38.667 -5.17188 -76.834 -15.5 -114.501c-10.333 -37.667 -26.333 -71.334 -48 -101.001
s-49.334 -53.5 -83.001 -71.5s-74.167 -27 -121.5 -27c-42 0 -78.333 7 -108.999 21c-30.667 14 -57 33.333 -79 58z" />
    <glyph glyph-name="Ugrave" unicode="&#xd9;" horiz-adv-x="685" 
d="M219 912l132 -141h51l-105 141h-78zM65 714l0.00292969 -457c0 -36.667 5.16699 -71.5 15.5 -104.5s26.666 -61.833 48.999 -86.5s51 -44.167 86 -58.5s77.167 -21.5 126.5 -21.5c50 0 92.5 7.16699 127.5 21.5s63.667 33.833 86 58.5s38.666 53.5 48.999 86.5
s15.5 67.833 15.5 104.5v457h-68v-442c-0.00390625 -41.333 -4.6709 -76.5 -14 -105.5c-9.33398 -29 -23.001 -52.667 -41 -71c-18 -18.333 -40 -31.666 -66 -39.999s-55.667 -12.5 -89 -12.5c-32.667 0 -62 4.16699 -88 12.5s-48 21.666 -66 39.999s-31.667 42 -41 71
c-9.33398 29 -14.001 64.167 -14.001 105.5v442h-68z" />
    <glyph glyph-name="Uacute" unicode="&#xda;" horiz-adv-x="685" 
d="M334 771l132 141h-78l-105 -141h51zM65 714l0.00292969 -457c0 -36.667 5.16699 -71.5 15.5 -104.5s26.666 -61.833 48.999 -86.5s51 -44.167 86 -58.5s77.167 -21.5 126.5 -21.5c50 0 92.5 7.16699 127.5 21.5s63.667 33.833 86 58.5s38.666 53.5 48.999 86.5
s15.5 67.833 15.5 104.5v457h-68v-442c-0.00390625 -41.333 -4.6709 -76.5 -14 -105.5c-9.33398 -29 -23.001 -52.667 -41 -71c-18 -18.333 -40 -31.666 -66 -39.999s-55.667 -12.5 -89 -12.5c-32.667 0 -62 4.16699 -88 12.5s-48 21.666 -66 39.999s-31.667 42 -41 71
c-9.33398 29 -14.001 64.167 -14.001 105.5v442h-68z" />
    <glyph glyph-name="Ucircumflex" unicode="&#xdb;" horiz-adv-x="685" 
d="M491 771l-114 141h-69l-114 -141h58l88 102l86 -102h65zM65 714l0.00292969 -457c0 -36.667 5.16699 -71.5 15.5 -104.5s26.666 -61.833 48.999 -86.5s51 -44.167 86 -58.5s77.167 -21.5 126.5 -21.5c50 0 92.5 7.16699 127.5 21.5s63.667 33.833 86 58.5
s38.666 53.5 48.999 86.5s15.5 67.833 15.5 104.5v457h-68v-442c-0.00390625 -41.333 -4.6709 -76.5 -14 -105.5c-9.33398 -29 -23.001 -52.667 -41 -71c-18 -18.333 -40 -31.666 -66 -39.999s-55.667 -12.5 -89 -12.5c-32.667 0 -62 4.16699 -88 12.5
s-48 21.666 -66 39.999s-31.667 42 -41 71c-9.33398 29 -14.001 64.167 -14.001 105.5v442h-68z" />
    <glyph glyph-name="Udieresis" unicode="&#xdc;" horiz-adv-x="685" 
d="M220 788h68v101h-68v-101zM397 788h68v101h-68v-101zM65 714l0.00292969 -457c0 -36.667 5.16699 -71.5 15.5 -104.5s26.666 -61.833 48.999 -86.5s51 -44.167 86 -58.5s77.167 -21.5 126.5 -21.5c50 0 92.5 7.16699 127.5 21.5s63.667 33.833 86 58.5
s38.666 53.5 48.999 86.5s15.5 67.833 15.5 104.5v457h-68v-442c-0.00390625 -41.333 -4.6709 -76.5 -14 -105.5c-9.33398 -29 -23.001 -52.667 -41 -71c-18 -18.333 -40 -31.666 -66 -39.999s-55.667 -12.5 -89 -12.5c-32.667 0 -62 4.16699 -88 12.5
s-48 21.666 -66 39.999s-31.667 42 -41 71c-9.33398 29 -14.001 64.167 -14.001 105.5v442h-68z" />
    <glyph glyph-name="Yacute" unicode="&#xdd;" horiz-adv-x="611" 
d="M297 771l132 141h-78l-105 -141h51zM271 294v-294h68v294l282 420h-81l-234 -362l-235 362h-80z" />
    <glyph glyph-name="Thorn" unicode="&#xde;" horiz-adv-x="630" 
d="M140 247v292h234c47.333 0 85.666 -12 114.999 -36s44 -60.667 44 -110c-0.000976562 -49.333 -14.668 -86 -44 -110c-29.333 -24 -67.666 -36 -114.999 -36h-234zM72 714l0.00195312 -714.001h68v189h249c32 0 61 4.5 87 13.5s48.333 22.333 66.999 40
c18.668 17.667 33.001 39.167 42.999 64.5c10 25.334 15 54.001 15 86.001s-5 60.667 -15 86c-10 25.335 -24.333 46.835 -43 64.5c-18.667 17.668 -41 31.001 -67 40c-26 9 -55 13.5 -87 13.5h-249v117h-68z" />
    <glyph glyph-name="germandbls" unicode="&#xdf;" horiz-adv-x="537" 
d="M61 535l-0.00195312 -535.002h63v530c0 48.001 10.333 84.334 30.999 109c20.667 24.668 56 37.001 106 37c18 0 35 -3 51 -9s30 -14.5 42 -25.5c12 -11.001 21.5 -24.168 28.5 -39.5c7 -15.333 10.5 -32.333 10.5 -51c-0.00195312 -26 -4.83496 -47.333 -14.499 -63.999
c-9.66699 -16.668 -22.667 -29.835 -39 -39.501c-16.333 -9.66699 -34.833 -16.5 -55.5 -20.499c-20.667 -4 -42 -6 -64 -6v-53c30.667 0 58.834 -2 84.501 -6c25.667 -4.00098 47.667 -11.834 66 -23.5c18.334 -11.667 32.667 -28.167 43 -49.5
c10.335 -21.333 15.502 -49.333 15.5 -84c0 -28.667 -4.66699 -53.167 -14 -73.5s-21.5 -37 -36.5 -50s-32.167 -22.333 -51.5 -28s-39.333 -8.5 -60 -8.5c-8 0 -15.833 0.333008 -23.5 1s-15.5 1.66699 -23.5 3v-54c4.66699 -0.666992 9 -1.16699 13 -1.5s8 -0.5 12 -0.5
h25c32 0.666992 61.5 5.66699 88.5 15s50.333 23.333 70 42s35.167 41.834 46.5 69.501c11.334 27.667 17.001 59.834 17 96.501c0 22.667 -3.16699 44.667 -9.5 66c-6.33301 21.334 -15.833 40.501 -28.5 57.501s-28.334 31 -47 42c-18.667 11 -40 17.5 -64 19.5v2
c36 8 63.833 26 83.5 54s29.5 60 29.5 96c0 28.667 -5.16699 53.834 -15.5 75.5c-10.333 21.668 -24.5 40.001 -42.5 55c-18 15.001 -38.833 26.334 -62.499 33.999c-23.667 7.6748 -48.834 11.5078 -75.501 11.499c-30 0 -57.167 -4 -81.5 -12s-45.166 -20 -62.499 -36
c-17.333 -16.001 -30.833 -36.168 -40.5 -60.5c-9.66699 -24.333 -14.5 -52.833 -14.5 -85.5z" />
    <glyph glyph-name="agrave" unicode="&#xe0;" 
d="M136 729l132 -141h51l-105 141h-78zM54 358l62.999 -0.00488281c1.33301 42 14.666 72.5 39.999 91.5s58 28.5 98 28.5c18.667 0 36.167 -1.5 52.5 -4.5c16.334 -3 30.667 -8.5 43 -16.5c12.334 -8 22.001 -18.833 29 -32.499c7 -13.667 10.5 -31.167 10.5 -52.5
c-0.00292969 -14 -1.83594 -25.333 -5.5 -33.999c-3.66797 -8.66699 -8.83496 -15.5 -15.5 -20.499c-6.66699 -5 -15 -8.5 -24.999 -10.5c-10 -2 -21.667 -3.66699 -35 -5c-34 -4 -67.5 -8.16699 -100.5 -12.5s-62.667 -11.833 -89 -22.5s-47.5 -26.167 -63.5 -46.5
s-24 -48.5 -24 -84.5c0 -26 4.5 -48.5 13.5 -67.5s21.333 -34.667 37 -47s34 -21.333 55 -27s43.5 -8.5 67.5 -8.5c25.333 0 47.166 2.33301 65.499 7c18.334 4.66699 34.667 11.334 49 20.001s27.333 19.5 39 32.5s23.167 27.833 34.5 44.5h2
c0 -13.333 0.833008 -25.5 2.5 -36.5s5.16699 -20.5 10.5 -28.5s12.833 -14.167 22.5 -18.5s22.5 -6.5 38.5 -6.5c8.66699 0 15.834 0.333008 21.501 1s12.167 1.66699 19.5 3v53c-6 -2.66699 -12.667 -4 -20 -4c-24.667 0 -37 12.667 -37 38v274
c0 34.667 -5.66699 62.834 -17 84.501s-26 38.5 -44 50.5s-38.333 20.167 -60.999 24.5c-22.667 4.33301 -45.334 6.5 -68 6.5c-30 0 -57.333 -3.33301 -82 -10s-46.167 -17 -64.5 -31s-32.833 -32 -43.5 -54s-17 -48 -19 -78zM389.999 281.995l0.000976562 -81.998
c-0.00195312 -25.333 -4.83496 -48 -14.5 -68c-9.66699 -20 -22.667 -37 -39 -51s-35.5 -24.667 -57.5 -32s-45 -11 -69 -11c-14.667 0 -29 2.33301 -43 7s-26.333 11.5 -37 20.5s-19.167 19.667 -25.5 32s-9.5 26.5 -9.5 42.5c0 25.333 7.5 44.833 22.5 58.5
s34.167 24.167 57.5 31.5s49.166 12.833 77.499 16.5s55.833 7.83398 82.5 12.5c8.66699 1.33496 18.667 3.66797 30 6.99902c11.334 3.33398 19.001 8.66699 23 15.999h2z" />
    <glyph glyph-name="aacute" unicode="&#xe1;" 
d="M251 588l132 141h-78l-105 -141h51zM54 358l62.999 -0.00488281c1.33301 42 14.666 72.5 39.999 91.5s58 28.5 98 28.5c18.667 0 36.167 -1.5 52.5 -4.5c16.334 -3 30.667 -8.5 43 -16.5c12.334 -8 22.001 -18.833 29 -32.499c7 -13.667 10.5 -31.167 10.5 -52.5
c-0.00292969 -14 -1.83594 -25.333 -5.5 -33.999c-3.66797 -8.66699 -8.83496 -15.5 -15.5 -20.499c-6.66699 -5 -15 -8.5 -24.999 -10.5c-10 -2 -21.667 -3.66699 -35 -5c-34 -4 -67.5 -8.16699 -100.5 -12.5s-62.667 -11.833 -89 -22.5s-47.5 -26.167 -63.5 -46.5
s-24 -48.5 -24 -84.5c0 -26 4.5 -48.5 13.5 -67.5s21.333 -34.667 37 -47s34 -21.333 55 -27s43.5 -8.5 67.5 -8.5c25.333 0 47.166 2.33301 65.499 7c18.334 4.66699 34.667 11.334 49 20.001s27.333 19.5 39 32.5s23.167 27.833 34.5 44.5h2
c0 -13.333 0.833008 -25.5 2.5 -36.5s5.16699 -20.5 10.5 -28.5s12.833 -14.167 22.5 -18.5s22.5 -6.5 38.5 -6.5c8.66699 0 15.834 0.333008 21.501 1s12.167 1.66699 19.5 3v53c-6 -2.66699 -12.667 -4 -20 -4c-24.667 0 -37 12.667 -37 38v274
c0 34.667 -5.66699 62.834 -17 84.501s-26 38.5 -44 50.5s-38.333 20.167 -60.999 24.5c-22.667 4.33301 -45.334 6.5 -68 6.5c-30 0 -57.333 -3.33301 -82 -10s-46.167 -17 -64.5 -31s-32.833 -32 -43.5 -54s-17 -48 -19 -78zM389.999 281.995l0.000976562 -81.998
c-0.00195312 -25.333 -4.83496 -48 -14.5 -68c-9.66699 -20 -22.667 -37 -39 -51s-35.5 -24.667 -57.5 -32s-45 -11 -69 -11c-14.667 0 -29 2.33301 -43 7s-26.333 11.5 -37 20.5s-19.167 19.667 -25.5 32s-9.5 26.5 -9.5 42.5c0 25.333 7.5 44.833 22.5 58.5
s34.167 24.167 57.5 31.5s49.166 12.833 77.499 16.5s55.833 7.83398 82.5 12.5c8.66699 1.33496 18.667 3.66797 30 6.99902c11.334 3.33398 19.001 8.66699 23 15.999h2z" />
    <glyph glyph-name="acircumflex" unicode="&#xe2;" 
d="M408 588l-114 141h-69l-114 -141h58l88 102l86 -102h65zM54 358l62.999 -0.00488281c1.33301 42 14.666 72.5 39.999 91.5s58 28.5 98 28.5c18.667 0 36.167 -1.5 52.5 -4.5c16.334 -3 30.667 -8.5 43 -16.5c12.334 -8 22.001 -18.833 29 -32.499
c7 -13.667 10.5 -31.167 10.5 -52.5c-0.00292969 -14 -1.83594 -25.333 -5.5 -33.999c-3.66797 -8.66699 -8.83496 -15.5 -15.5 -20.499c-6.66699 -5 -15 -8.5 -24.999 -10.5c-10 -2 -21.667 -3.66699 -35 -5c-34 -4 -67.5 -8.16699 -100.5 -12.5s-62.667 -11.833 -89 -22.5
s-47.5 -26.167 -63.5 -46.5s-24 -48.5 -24 -84.5c0 -26 4.5 -48.5 13.5 -67.5s21.333 -34.667 37 -47s34 -21.333 55 -27s43.5 -8.5 67.5 -8.5c25.333 0 47.166 2.33301 65.499 7c18.334 4.66699 34.667 11.334 49 20.001s27.333 19.5 39 32.5s23.167 27.833 34.5 44.5h2
c0 -13.333 0.833008 -25.5 2.5 -36.5s5.16699 -20.5 10.5 -28.5s12.833 -14.167 22.5 -18.5s22.5 -6.5 38.5 -6.5c8.66699 0 15.834 0.333008 21.501 1s12.167 1.66699 19.5 3v53c-6 -2.66699 -12.667 -4 -20 -4c-24.667 0 -37 12.667 -37 38v274
c0 34.667 -5.66699 62.834 -17 84.501s-26 38.5 -44 50.5s-38.333 20.167 -60.999 24.5c-22.667 4.33301 -45.334 6.5 -68 6.5c-30 0 -57.333 -3.33301 -82 -10s-46.167 -17 -64.5 -31s-32.833 -32 -43.5 -54s-17 -48 -19 -78zM389.999 281.995l0.000976562 -81.998
c-0.00195312 -25.333 -4.83496 -48 -14.5 -68c-9.66699 -20 -22.667 -37 -39 -51s-35.5 -24.667 -57.5 -32s-45 -11 -69 -11c-14.667 0 -29 2.33301 -43 7s-26.333 11.5 -37 20.5s-19.167 19.667 -25.5 32s-9.5 26.5 -9.5 42.5c0 25.333 7.5 44.833 22.5 58.5
s34.167 24.167 57.5 31.5s49.166 12.833 77.499 16.5s55.833 7.83398 82.5 12.5c8.66699 1.33496 18.667 3.66797 30 6.99902c11.334 3.33398 19.001 8.66699 23 15.999h2z" />
    <glyph glyph-name="atilde" unicode="&#xe3;" 
d="M416 708l-38.002 0.00488281c-4.00098 -13.3359 -9.83398 -24.6689 -17.5 -34c-7.66699 -9.33789 -19.167 -14.0049 -34.5 -14c-9.33301 0.00976562 -18.833 2.34277 -28.5 6.99902c-9.66699 4.66699 -20 9.66699 -30.999 15c-11 5.33301 -22.833 10.333 -35.5 15
c-12.667 4.67773 -26 7.01074 -40 7c-12.667 0 -24.334 -2.83301 -35.001 -8.5s-19.667 -13 -27 -22c-7.33301 -9.00293 -13.333 -19.1699 -18 -30.501c-4.66699 -11.335 -7.66699 -23.002 -9 -35.001h39c0 16.668 5 29.335 15 38c10 8.67383 22.667 13.0068 38 12.999
c8.66699 0 18 -2.33301 28 -7s20.667 -10 32 -16s23.333 -11.333 36 -16s25.667 -7 39 -7c13.334 0.00488281 25.001 2.83789 35.001 8.5c10 5.66895 18.5 13.002 25.5 22c7.00098 9 12.668 19.167 17.001 30.5c4.33496 11.333 7.50195 22.666 9.5 33.999zM53.998 358.005
l62.999 -0.00488281c1.33301 42 14.666 72.5 39.999 91.5s58 28.5 98 28.5c18.667 0 36.167 -1.5 52.5 -4.5c16.334 -3 30.667 -8.5 43 -16.5c12.334 -8 22.001 -18.833 29 -32.499c7 -13.667 10.5 -31.167 10.5 -52.5c-0.00292969 -14 -1.83594 -25.333 -5.5 -33.999
c-3.66797 -8.66699 -8.83496 -15.5 -15.5 -20.499c-6.66699 -5 -15 -8.5 -24.999 -10.5c-10 -2 -21.667 -3.66699 -35 -5c-34 -4 -67.5 -8.16699 -100.5 -12.5s-62.667 -11.833 -89 -22.5s-47.5 -26.167 -63.5 -46.5s-24 -48.5 -24 -84.5c0 -26 4.5 -48.5 13.5 -67.5
s21.333 -34.667 37 -47s34 -21.333 55 -27s43.5 -8.5 67.5 -8.5c25.333 0 47.166 2.33301 65.499 7c18.334 4.66699 34.667 11.334 49 20.001s27.333 19.5 39 32.5s23.167 27.833 34.5 44.5h2c0 -13.333 0.833008 -25.5 2.5 -36.5s5.16699 -20.5 10.5 -28.5
s12.833 -14.167 22.5 -18.5s22.5 -6.5 38.5 -6.5c8.66699 0 15.834 0.333008 21.501 1s12.167 1.66699 19.5 3v53c-6 -2.66699 -12.667 -4 -20 -4c-24.667 0 -37 12.667 -37 38v274c0 34.667 -5.66699 62.834 -17 84.501s-26 38.5 -44 50.5s-38.333 20.167 -60.999 24.5
c-22.667 4.33301 -45.334 6.5 -68 6.5c-30 0 -57.333 -3.33301 -82 -10s-46.167 -17 -64.5 -31s-32.833 -32 -43.5 -54s-17 -48 -19 -78zM389.997 282l0.000976562 -81.998c-0.00195312 -25.333 -4.83496 -48 -14.5 -68c-9.66699 -20 -22.667 -37 -39 -51
s-35.5 -24.667 -57.5 -32s-45 -11 -69 -11c-14.667 0 -29 2.33301 -43 7s-26.333 11.5 -37 20.5s-19.167 19.667 -25.5 32s-9.5 26.5 -9.5 42.5c0 25.333 7.5 44.833 22.5 58.5s34.167 24.167 57.5 31.5s49.166 12.833 77.499 16.5s55.833 7.83398 82.5 12.5
c8.66699 1.33496 18.667 3.66797 30 6.99902c11.334 3.33398 19.001 8.66699 23 15.999h2z" />
    <glyph glyph-name="adieresis" unicode="&#xe4;" 
d="M137 605h68v101h-68v-101zM314 605h68v101h-68v-101zM54 358l62.999 -0.00488281c1.33301 42 14.666 72.5 39.999 91.5s58 28.5 98 28.5c18.667 0 36.167 -1.5 52.5 -4.5c16.334 -3 30.667 -8.5 43 -16.5c12.334 -8 22.001 -18.833 29 -32.499
c7 -13.667 10.5 -31.167 10.5 -52.5c-0.00292969 -14 -1.83594 -25.333 -5.5 -33.999c-3.66797 -8.66699 -8.83496 -15.5 -15.5 -20.499c-6.66699 -5 -15 -8.5 -24.999 -10.5c-10 -2 -21.667 -3.66699 -35 -5c-34 -4 -67.5 -8.16699 -100.5 -12.5s-62.667 -11.833 -89 -22.5
s-47.5 -26.167 -63.5 -46.5s-24 -48.5 -24 -84.5c0 -26 4.5 -48.5 13.5 -67.5s21.333 -34.667 37 -47s34 -21.333 55 -27s43.5 -8.5 67.5 -8.5c25.333 0 47.166 2.33301 65.499 7c18.334 4.66699 34.667 11.334 49 20.001s27.333 19.5 39 32.5s23.167 27.833 34.5 44.5h2
c0 -13.333 0.833008 -25.5 2.5 -36.5s5.16699 -20.5 10.5 -28.5s12.833 -14.167 22.5 -18.5s22.5 -6.5 38.5 -6.5c8.66699 0 15.834 0.333008 21.501 1s12.167 1.66699 19.5 3v53c-6 -2.66699 -12.667 -4 -20 -4c-24.667 0 -37 12.667 -37 38v274
c0 34.667 -5.66699 62.834 -17 84.501s-26 38.5 -44 50.5s-38.333 20.167 -60.999 24.5c-22.667 4.33301 -45.334 6.5 -68 6.5c-30 0 -57.333 -3.33301 -82 -10s-46.167 -17 -64.5 -31s-32.833 -32 -43.5 -54s-17 -48 -19 -78zM389.999 281.995l0.000976562 -81.998
c-0.00195312 -25.333 -4.83496 -48 -14.5 -68c-9.66699 -20 -22.667 -37 -39 -51s-35.5 -24.667 -57.5 -32s-45 -11 -69 -11c-14.667 0 -29 2.33301 -43 7s-26.333 11.5 -37 20.5s-19.167 19.667 -25.5 32s-9.5 26.5 -9.5 42.5c0 25.333 7.5 44.833 22.5 58.5
s34.167 24.167 57.5 31.5s49.166 12.833 77.499 16.5s55.833 7.83398 82.5 12.5c8.66699 1.33496 18.667 3.66797 30 6.99902c11.334 3.33398 19.001 8.66699 23 15.999h2z" />
    <glyph glyph-name="aring" unicode="&#xe5;" 
d="M192 677c0 19.333 6.49902 35.501 19.499 48.501s29.167 19.5 48.5 19.5c19.334 0 35.501 -6.5 48.501 -19.5c13 -13.002 19.5 -29.1689 19.5 -48.5c0 -19.335 -6.5 -35.502 -19.5 -48.501c-13 -13 -29.167 -19.5 -48.5 -19.5s-35.5 6.5 -48.5 19.5
s-19.5 29.167 -19.5 48.5zM152.999 677.001c0 -14.667 2.83105 -28.4961 8.49707 -41.4961c5.66699 -13 13.334 -24.333 23.001 -34s21 -17.334 34 -23.001s26.833 -8.5 41.5 -8.5c14.667 0.00390625 28.5 2.83691 41.5 8.49902c13 5.66797 24.333 13.335 34 23.001
c9.66699 9.66797 17.334 21.001 23.001 34c5.66699 13.001 8.5 26.834 8.5 41.499c-0.000976562 14.668 -2.83398 28.501 -8.49902 41.5c-5.66699 13.001 -13.334 24.334 -23 33.999c-9.66699 9.66797 -21 17.335 -34 23c-13 5.67285 -26.833 8.50586 -41.499 8.5
c-14.667 0 -28.5 -2.83301 -41.5 -8.5s-24.333 -13.334 -34 -23.001s-17.334 -21 -23.001 -34s-8.5 -26.833 -8.5 -41.5zM53.9971 358.005l63 -0.00488281c1.33301 42 14.666 72.5 39.999 91.5s58 28.5 98 28.5c18.667 0 36.167 -1.5 52.5 -4.5
c16.334 -3 30.667 -8.5 43 -16.5c12.334 -8 22.001 -18.833 29 -32.499c7 -13.667 10.5 -31.167 10.5 -52.5c-0.00292969 -14 -1.83594 -25.333 -5.5 -33.999c-3.66797 -8.66699 -8.83496 -15.5 -15.5 -20.499c-6.66699 -5 -15 -8.5 -24.999 -10.5
c-10 -2 -21.667 -3.66699 -35 -5c-34 -4 -67.5 -8.16699 -100.5 -12.5s-62.667 -11.833 -89 -22.5s-47.5 -26.167 -63.5 -46.5s-24 -48.5 -24 -84.5c0 -26 4.5 -48.5 13.5 -67.5s21.333 -34.667 37 -47s34 -21.333 55 -27s43.5 -8.5 67.5 -8.5
c25.333 0 47.166 2.33301 65.499 7c18.334 4.66699 34.667 11.334 49 20.001s27.333 19.5 39 32.5s23.167 27.833 34.5 44.5h2c0 -13.333 0.833008 -25.5 2.5 -36.5s5.16699 -20.5 10.5 -28.5s12.833 -14.167 22.5 -18.5s22.5 -6.5 38.5 -6.5
c8.66699 0 15.834 0.333008 21.501 1s12.167 1.66699 19.5 3v53c-6 -2.66699 -12.667 -4 -20 -4c-24.667 0 -37 12.667 -37 38v274c0 34.667 -5.66699 62.834 -17 84.501s-26 38.5 -44 50.5s-38.333 20.167 -60.999 24.5c-22.667 4.33301 -45.334 6.5 -68.001 6.5
c-30 0 -57.333 -3.33301 -82 -10s-46.167 -17 -64.5 -31s-32.833 -32 -43.5 -54s-17 -48 -19 -78zM389.997 282l0.000976562 -81.998c-0.00195312 -25.333 -4.83496 -48 -14.5 -68c-9.66699 -20 -22.667 -37 -39 -51s-35.5 -24.667 -57.5 -32s-45 -11 -69 -11
c-14.667 0 -29 2.33301 -43 7s-26.333 11.5 -37 20.5s-19.167 19.667 -25.5 32s-9.5 26.5 -9.5 42.5c0 25.333 7.5 44.833 22.5 58.5s34.167 24.167 57.5 31.5s49.166 12.833 77.499 16.5s55.833 7.83398 82.5 12.5c8.66699 1.33496 18.667 3.66797 30 6.99902
c11.334 3.33398 19.001 8.66699 23 15.999h2z" />
    <glyph glyph-name="ae" unicode="&#xe6;" horiz-adv-x="870" 
d="M453 241l388.001 -0.00195312c-0.00976562 37.333 -3.67676 73.5 -11.001 108.5c-7.33594 35 -19.6689 66 -36.999 93c-17.335 27 -40.168 48.5 -68.5 64.5c-28.333 16 -63.833 24 -106.5 24c-18.667 -0.0078125 -37.334 -2.1748 -56.001 -6.5
c-18.667 -4.33496 -36.167 -11.002 -52.5 -20c-16.333 -9 -30.833 -20.167 -43.5 -33.5c-12.668 -13.333 -22.335 -29 -29 -47h-2c-3.33301 22 -10.833 40 -22.5 54s-25.667 24.833 -42 32.5c-16.333 7.66895 -34 13.002 -53 16c-19 3 -37.167 4.5 -54.5 4.5
c-30 0 -57.333 -3.33301 -82 -10s-46.167 -17 -64.5 -31s-32.833 -32 -43.5 -54s-17 -48 -19 -78h63c1.33301 42 14.666 72.5 39.999 91.5s58 28.5 98 28.5c18.667 0 36.167 -1.5 52.5 -4.5c16.334 -3 30.667 -8.5 43 -16.5c12.334 -8 22.001 -18.833 29 -32.499
c7 -13.667 10.5 -31.167 10.5 -52.5c-0.00292969 -14 -1.83594 -25.333 -5.5 -33.999c-3.66797 -8.66699 -8.83496 -15.5 -15.5 -20.499c-6.66699 -5 -15 -8.5 -24.999 -10.5c-10 -2 -21.667 -3.66699 -35 -5c-34 -4 -67.5 -8.16699 -100.5 -12.5s-62.667 -11.833 -89 -22.5
s-47.5 -26.167 -63.5 -46.5s-24 -48.5 -24 -84.5c0 -26 4.5 -48.5 13.5 -67.5s21.333 -34.667 37 -47s34 -21.333 55 -27s43.5 -8.5 67.5 -8.5c22.667 0 46 2.66699 70 8s46.167 13.333 66.5 24c20.334 10.667 37.667 24 52 40c14.334 16 23.501 35 27.5 57h2
c15.334 -44 39.167 -76.5 71.5 -97.5s71.5 -31.5 117.5 -31.5c60.667 0 110 15.5 148 46.5s63.667 75.833 77 134.5h-63c-9.33496 -40.667 -26.502 -72.334 -51.5 -95.001c-25 -22.667 -58.833 -34 -101.5 -34c-30 0 -56 5.5 -78 16.5s-40 25.667 -54 44
s-24 39.833 -30 64.5s-8 50.667 -6 78zM390.001 281.998l0.000976562 -81.998c-0.00195312 -25.333 -4.83496 -48 -14.5 -68c-9.66699 -20 -22.667 -37 -39 -51s-35.5 -24.667 -57.5 -32s-45 -11 -69 -11c-14.667 0 -29 2.33301 -43 7s-26.333 11.5 -37 20.5
s-19.167 19.667 -25.5 32s-9.5 26.5 -9.5 42.5c0 25.333 7.5 44.833 22.5 58.5s34.167 24.167 57.5 31.5s49.166 12.833 77.499 16.5s55.833 7.83398 82.5 12.5c8.66699 1.33496 18.667 3.66797 30 6.99902c11.334 3.33398 19.001 8.66699 23 15.999h2zM778.002 294
l-324.999 -0.000976562c-0.665039 24 2.50195 47.167 9.5 69.5c7 22.334 17.5 42.001 31.5 59.001s31.167 30.5 51.5 40.5s43.5 15 69.5 15c25.333 0 48 -5.16699 68 -15.5s37 -24 51 -41c14.001 -17 24.834 -36.5 32.499 -58.5c7.67578 -22 11.5088 -45 11.5 -69z" />
    <glyph glyph-name="ccedilla" unicode="&#xe7;" 
d="M491 185l-63.0049 0.00390625c-2.00098 -21.333 -7.33398 -41 -16 -59c-8.66699 -18 -19.667 -33.5 -33 -46.5s-28.666 -23.167 -45.999 -30.5s-35.666 -11 -54.999 -11c-30 0 -56.333 6.33301 -79 19s-41.5 29.334 -56.5 50.001s-26.333 44.167 -34 70.5
s-11.5 53.166 -11.5 80.499c0 27.334 3.83301 54.167 11.5 80.5s19 49.833 34 70.5s33.833 37.334 56.5 50.001s49 19 79 19c42 0 74.667 -11 98 -33s39.333 -52.333 48 -90.999h63c-7.33301 59.333 -30.166 103.666 -68.499 132.999s-85.166 44 -140.499 44
c-39.333 0 -74.166 -7.33301 -104.499 -22s-55.833 -34.334 -76.5 -59c-20.667 -24.667 -36.334 -53.5 -47.001 -86.5s-16 -68.167 -16 -105.5c0 -34.667 4.66699 -67.5 14 -98.5s23 -58.5 41 -82.5s40.333 -43.833 67 -59.5s57.334 -25.5 92.001 -29.5l-51 -66l16 -15
c12 5.33301 29 8 51 8c11.333 0 21.333 -3.33301 30 -10s13 -16 13 -28c-0.000976562 -15.333 -5.33398 -26.333 -16 -33c-10.667 -6.66699 -23 -10 -37 -10c-14.667 0 -29.334 1.5 -44.001 4.5s-26.334 6.16699 -35.001 9.5l-14 -32c14.667 -7.33301 30 -12.666 46 -16
c16 -3.33301 32 -5 48 -5.00098c12.667 0 25.5 1.66699 38.5 5s24.833 8.5 35.5 15.5s19.334 15.833 26.001 26.5s10 23.667 10 39c-0.000976562 15.333 -3.83398 27.666 -11.499 36.999c-7.66699 9.33301 -17.334 16.166 -29 20.499
c-11.667 4.33301 -24.167 6.66602 -37.5 6.99902s-26 -0.5 -38 -2.5l33 43c56.667 1.33301 103.5 19.166 140.5 53.499s59.833 82.833 68.5 145.5z" />
    <glyph glyph-name="egrave" unicode="&#xe8;" 
d="M136 729l132 -141h51l-105 141h-78zM431 294h-334.002c2.66699 23.333 8.16699 46.166 16.5 68.499c8.33301 22.334 19.5 42.001 33.5 59.001s31 30.667 51 41c20 10.335 43 15.502 69 15.5c25.334 0 48.001 -5.16699 68.001 -15.5s37 -24 51 -41
s24.833 -36.5 32.5 -58.5s11.834 -45 12.501 -69zM96.998 241l396.998 0.00292969c1.33105 36 -2.00195 71.5 -10 106.5c-8 35 -21.167 66 -39.5 93s-42.166 48.833 -71.499 65.5c-29.333 16.6699 -64.666 25.0029 -105.999 25c-40.667 0 -75.834 -7.83301 -105.501 -23.5
c-29.667 -15.668 -53.834 -36.335 -72.501 -62.001c-18.667 -25.667 -32.5 -54.834 -41.5 -87.501s-13.5 -66 -13.5 -100c0 -36.667 4.5 -71.5 13.5 -104.5s22.833 -62 41.5 -87s42.834 -44.667 72.501 -59s64.834 -21.5 105.501 -21.5c65.333 0 115.833 16 151.5 48
s60.167 77.333 73.5 136h-63c-10 -40 -28 -72 -54 -96s-62 -36 -108 -36c-30 0 -55.667 6.33301 -77 19s-39 28.667 -53 48s-24.167 41.166 -30.5 65.499s-9.5 47.833 -9.5 70.5z" />
    <glyph glyph-name="eacute" unicode="&#xe9;" 
d="M251 588l132 141h-78l-105 -141h51zM431 294h-334.002c2.66699 23.333 8.16699 46.166 16.5 68.499c8.33301 22.334 19.5 42.001 33.5 59.001s31 30.667 51 41c20 10.335 43 15.502 69 15.5c25.334 0 48.001 -5.16699 68.001 -15.5s37 -24 51 -41
s24.833 -36.5 32.5 -58.5s11.834 -45 12.501 -69zM96.998 241l396.998 0.00292969c1.33105 36 -2.00195 71.5 -10 106.5c-8 35 -21.167 66 -39.5 93s-42.166 48.833 -71.499 65.5c-29.333 16.6699 -64.666 25.0029 -105.999 25c-40.667 0 -75.834 -7.83301 -105.501 -23.5
c-29.667 -15.668 -53.834 -36.335 -72.501 -62.001c-18.667 -25.667 -32.5 -54.834 -41.5 -87.501s-13.5 -66 -13.5 -100c0 -36.667 4.5 -71.5 13.5 -104.5s22.833 -62 41.5 -87s42.834 -44.667 72.501 -59s64.834 -21.5 105.501 -21.5c65.333 0 115.833 16 151.5 48
s60.167 77.333 73.5 136h-63c-10 -40 -28 -72 -54 -96s-62 -36 -108 -36c-30 0 -55.667 6.33301 -77 19s-39 28.667 -53 48s-24.167 41.166 -30.5 65.499s-9.5 47.833 -9.5 70.5z" />
    <glyph glyph-name="ecircumflex" unicode="&#xea;" 
d="M408 588l-114 141h-69l-114 -141h58l88 102l86 -102h65zM431 294h-334.002c2.66699 23.333 8.16699 46.166 16.5 68.499c8.33301 22.334 19.5 42.001 33.5 59.001s31 30.667 51 41c20 10.335 43 15.502 69 15.5c25.334 0 48.001 -5.16699 68.001 -15.5s37 -24 51 -41
s24.833 -36.5 32.5 -58.5s11.834 -45 12.501 -69zM96.998 241l396.998 0.00292969c1.33105 36 -2.00195 71.5 -10 106.5c-8 35 -21.167 66 -39.5 93s-42.166 48.833 -71.499 65.5c-29.333 16.6699 -64.666 25.0029 -105.999 25c-40.667 0 -75.834 -7.83301 -105.501 -23.5
c-29.667 -15.668 -53.834 -36.335 -72.501 -62.001c-18.667 -25.667 -32.5 -54.834 -41.5 -87.501s-13.5 -66 -13.5 -100c0 -36.667 4.5 -71.5 13.5 -104.5s22.833 -62 41.5 -87s42.834 -44.667 72.501 -59s64.834 -21.5 105.501 -21.5c65.333 0 115.833 16 151.5 48
s60.167 77.333 73.5 136h-63c-10 -40 -28 -72 -54 -96s-62 -36 -108 -36c-30 0 -55.667 6.33301 -77 19s-39 28.667 -53 48s-24.167 41.166 -30.5 65.499s-9.5 47.833 -9.5 70.5z" />
    <glyph glyph-name="edieresis" unicode="&#xeb;" 
d="M137 605h68v101h-68v-101zM314 605h68v101h-68v-101zM431 294h-334.002c2.66699 23.333 8.16699 46.166 16.5 68.499c8.33301 22.334 19.5 42.001 33.5 59.001s31 30.667 51 41c20 10.335 43 15.502 69 15.5c25.334 0 48.001 -5.16699 68.001 -15.5s37 -24 51 -41
s24.833 -36.5 32.5 -58.5s11.834 -45 12.501 -69zM96.998 241l396.998 0.00292969c1.33105 36 -2.00195 71.5 -10 106.5c-8 35 -21.167 66 -39.5 93s-42.166 48.833 -71.499 65.5c-29.333 16.6699 -64.666 25.0029 -105.999 25c-40.667 0 -75.834 -7.83301 -105.501 -23.5
c-29.667 -15.668 -53.834 -36.335 -72.501 -62.001c-18.667 -25.667 -32.5 -54.834 -41.5 -87.501s-13.5 -66 -13.5 -100c0 -36.667 4.5 -71.5 13.5 -104.5s22.833 -62 41.5 -87s42.834 -44.667 72.501 -59s64.834 -21.5 105.501 -21.5c65.333 0 115.833 16 151.5 48
s60.167 77.333 73.5 136h-63c-10 -40 -28 -72 -54 -96s-62 -36 -108 -36c-30 0 -55.667 6.33301 -77 19s-39 28.667 -53 48s-24.167 41.166 -30.5 65.499s-9.5 47.833 -9.5 70.5z" />
    <glyph glyph-name="igrave" unicode="&#xec;" horiz-adv-x="185" 
d="M-30 729l131 -141h51l-105 141h-77zM61 0h63v516h-63v-516z" />
    <glyph glyph-name="iacute" unicode="&#xed;" horiz-adv-x="185" 
d="M84 588l132 141h-78l-105 -141h51zM61 0h63v516h-63v-516z" />
    <glyph glyph-name="icircumflex" unicode="&#xee;" horiz-adv-x="185" 
d="M241 588l-114 141h-69l-113 -141h57l88 102l86 -102h65zM61 0h63v516h-63v-516z" />
    <glyph glyph-name="idieresis" unicode="&#xef;" horiz-adv-x="185" 
d="M-29 605h67v101h-67v-101zM147 605h68v101h-68v-101zM61 0h63v516h-63v-516z" />
    <glyph glyph-name="eth" unicode="&#xf0;" horiz-adv-x="556" 
d="M235 652l-100 -55.9951l33 -32l105 59c28 -22.001 53 -45.668 75 -71.001c22 -25.334 41.333 -54.001 58 -86h-2c-14.667 15.333 -34.334 25.833 -59 31.5c-24.667 5.66699 -49.334 8.5 -74.001 8.5c-38 -0.000976562 -71.667 -6.83398 -101 -20.5
c-29.333 -13.667 -54.166 -32.334 -74.499 -56c-20.333 -23.667 -35.666 -51 -45.999 -82s-15.5 -63.833 -15.5 -98.5c0 -37.333 4.83301 -72 14.5 -104s24.167 -59.833 43.5 -83.5s44 -42.167 74 -55.5s65 -20 105 -20c42 0 78.333 7.16699 109 21.5s56 33.666 76 57.999
s35 53 45 86s15 68.5 15 106.5c0 43.333 -5 83.833 -15 121.5s-23.833 72.667 -41.499 105c-17.668 32.333 -38.335 62.166 -62.001 89.499c-23.667 27.333 -49.5 52.333 -77.5 75l109 61l-33 32l-114 -64c-16.667 12.667 -33.834 24.167 -51.5 34.5
c-17.667 10.333 -35.167 20.166 -52.5 29.499l-36 -35c16 -8.00293 31.667 -16.6699 47 -26.001c15.333 -9.33594 30.666 -19.0029 45.999 -29zM276 453.005c32 -0.000976562 59.1641 -5.83203 81.4971 -17.498c22.334 -11.667 40.501 -27.167 54.5 -46.5
c14 -19.333 24.333 -41 31 -65s10 -48.667 10 -74c-0.00195312 -30.667 -3.83496 -59 -11.5 -85c-7.66699 -26 -19 -48.5 -34 -67.5s-33.667 -33.667 -56 -44s-48.166 -15.5 -77.499 -15.5c-31.333 0 -58.166 5.83301 -80.499 17.5s-40.666 27.167 -54.999 46.5
s-24.833 41.666 -31.5 66.999s-10 51.666 -10 78.999s3.33301 53.5 10 78.5s17.167 46.833 31.5 65.5s32.833 33.5 55.5 44.5s50 16.5 82 16.5z" />
    <glyph glyph-name="ntilde" unicode="&#xf1;" horiz-adv-x="537" 
d="M425 708l-38.002 0.00488281c-4.00098 -13.3359 -9.83398 -24.6689 -17.5 -34c-7.66699 -9.33789 -19.167 -14.0049 -34.5 -14c-9.33301 0.00976562 -18.833 2.34277 -28.5 6.99902c-9.66699 4.66699 -20 9.66699 -30.999 15c-11 5.33301 -22.833 10.333 -35.5 15
c-12.667 4.67773 -26 7.01074 -40 7c-12.667 0 -24.334 -2.83301 -35.001 -8.5s-19.667 -13 -27 -22c-7.33398 -9.00293 -13.334 -19.1699 -18 -30.501c-4.66699 -11.335 -7.66699 -23.002 -9 -35.001h39c0 16.668 5 29.335 15 38c10 8.67383 22.667 13.0068 38 12.999
c8.66699 0 18 -2.33301 28 -7s20.667 -10 32 -16s23.333 -11.333 36 -16s25.667 -7 39 -7c13.334 0.00488281 25.001 2.83789 35.001 8.5c10 5.66895 18.5 13.002 25.5 22c7.00098 9 12.668 19.167 17.001 30.5c4.33496 11.333 7.50195 22.666 9.5 33.999zM58.998 516.005
l-0.00292969 -516.002h63v301c0.666992 25.333 4.83398 48.833 12.501 70.5s18.334 40.334 32.001 56.001s30.334 28 50.001 37s42.167 13.5 67.5 13.5c25.334 0 46.501 -4 63.501 -12s30.5 -19 40.5 -33s17 -30.5 21 -49.5s6 -39.5 6 -61.5v-322h63v332
c0 30.667 -3 58.334 -9 83.001c-6.00098 24.667 -16.334 45.5 -31 62.5c-14.667 17 -34.167 30.167 -58.5 39.5s-54.5 14 -90.5 14c-36.667 0 -70.334 -9.5 -101.001 -28.5s-52 -44.167 -64 -75.5h-2v89h-63z" />
    <glyph glyph-name="ograve" unicode="&#xf2;" horiz-adv-x="556" 
d="M155 729l132 -141h51l-105 141h-78zM278 478c30 -0.000976562 56.333 -6.33496 79 -19.001c22.667 -12.667 41.5 -29.334 56.5 -50c15 -20.667 26.333 -44.167 34 -70.5s11.5 -53.166 11.5 -80.499c-0.00292969 -27.333 -3.83594 -54.166 -11.5 -80.499
c-7.66699 -26.333 -19 -49.833 -34 -70.5c-15.001 -20.667 -33.834 -37.334 -56.5 -50.001c-22.667 -12.667 -49 -19 -79 -19s-56.333 6.33301 -79 19s-41.5 29.334 -56.5 50.001s-26.333 44.167 -34 70.5s-11.5 53.166 -11.5 80.499s3.83301 54.166 11.5 80.499
s19 49.833 34 70.5s33.833 37.334 56.5 50.001s49 19 79 19zM278 530.999c-39.333 0 -74.168 -7.33496 -104.501 -22.002s-55.833 -34.334 -76.5 -59c-20.667 -24.667 -36.334 -53.5 -47.001 -86.5s-16 -68.167 -16 -105.5s5.33301 -72.5 16 -105.5
s26.334 -61.833 47.001 -86.5s46.167 -44.167 76.5 -58.5s65.166 -21.5 104.499 -21.5c39.334 0 74.167 7.16699 104.5 21.5s55.833 33.833 76.5 58.5s36.334 53.5 47.001 86.5c10.6689 33 16.002 68.167 16 105.5c0 37.334 -5.33301 72.501 -16 105.501
s-26.334 61.833 -47 86.5c-20.667 24.667 -46.167 44.334 -76.5 59.001c-30.333 14.6699 -65.166 22.0029 -104.499 22z" />
    <glyph glyph-name="oacute" unicode="&#xf3;" horiz-adv-x="556" 
d="M270 588l132 141h-78l-105 -141h51zM278 478c30 -0.000976562 56.333 -6.33496 79 -19.001c22.667 -12.667 41.5 -29.334 56.5 -50c15 -20.667 26.333 -44.167 34 -70.5s11.5 -53.166 11.5 -80.499c-0.00292969 -27.333 -3.83594 -54.166 -11.5 -80.499
c-7.66699 -26.333 -19 -49.833 -34 -70.5c-15.001 -20.667 -33.834 -37.334 -56.5 -50.001c-22.667 -12.667 -49 -19 -79 -19s-56.333 6.33301 -79 19s-41.5 29.334 -56.5 50.001s-26.333 44.167 -34 70.5s-11.5 53.166 -11.5 80.499s3.83301 54.166 11.5 80.499
s19 49.833 34 70.5s33.833 37.334 56.5 50.001s49 19 79 19zM278 530.999c-39.333 0 -74.168 -7.33496 -104.501 -22.002s-55.833 -34.334 -76.5 -59c-20.667 -24.667 -36.334 -53.5 -47.001 -86.5s-16 -68.167 -16 -105.5s5.33301 -72.5 16 -105.5
s26.334 -61.833 47.001 -86.5s46.167 -44.167 76.5 -58.5s65.166 -21.5 104.499 -21.5c39.334 0 74.167 7.16699 104.5 21.5s55.833 33.833 76.5 58.5s36.334 53.5 47.001 86.5c10.6689 33 16.002 68.167 16 105.5c0 37.334 -5.33301 72.501 -16 105.501
s-26.334 61.833 -47 86.5c-20.667 24.667 -46.167 44.334 -76.5 59.001c-30.333 14.6699 -65.166 22.0029 -104.499 22z" />
    <glyph glyph-name="ocircumflex" unicode="&#xf4;" horiz-adv-x="556" 
d="M427 588l-114 141h-69l-114 -141h58l88 102l86 -102h65zM278 478c30 -0.000976562 56.333 -6.33496 79 -19.001c22.667 -12.667 41.5 -29.334 56.5 -50c15 -20.667 26.333 -44.167 34 -70.5s11.5 -53.166 11.5 -80.499
c-0.00292969 -27.333 -3.83594 -54.166 -11.5 -80.499c-7.66699 -26.333 -19 -49.833 -34 -70.5c-15.001 -20.667 -33.834 -37.334 -56.5 -50.001c-22.667 -12.667 -49 -19 -79 -19s-56.333 6.33301 -79 19s-41.5 29.334 -56.5 50.001s-26.333 44.167 -34 70.5
s-11.5 53.166 -11.5 80.499s3.83301 54.166 11.5 80.499s19 49.833 34 70.5s33.833 37.334 56.5 50.001s49 19 79 19zM278 530.999c-39.333 0 -74.168 -7.33496 -104.501 -22.002s-55.833 -34.334 -76.5 -59c-20.667 -24.667 -36.334 -53.5 -47.001 -86.5
s-16 -68.167 -16 -105.5s5.33301 -72.5 16 -105.5s26.334 -61.833 47.001 -86.5s46.167 -44.167 76.5 -58.5s65.166 -21.5 104.499 -21.5c39.334 0 74.167 7.16699 104.5 21.5s55.833 33.833 76.5 58.5s36.334 53.5 47.001 86.5c10.6689 33 16.002 68.167 16 105.5
c0 37.334 -5.33301 72.501 -16 105.501s-26.334 61.833 -47 86.5c-20.667 24.667 -46.167 44.334 -76.5 59.001c-30.333 14.6699 -65.166 22.0029 -104.499 22z" />
    <glyph glyph-name="otilde" unicode="&#xf5;" horiz-adv-x="556" 
d="M435 708l-38.002 0.00488281c-4.00098 -13.3359 -9.83398 -24.6689 -17.5 -34c-7.66699 -9.33789 -19.167 -14.0049 -34.5 -14c-9.33301 0.00976562 -18.833 2.34277 -28.5 6.99902c-9.66797 4.66699 -20.001 9.66699 -31 15c-11 5.33301 -22.833 10.333 -35.499 15
c-12.667 4.67773 -26 7.01074 -40 7c-12.667 0 -24.334 -2.83301 -35.001 -8.5s-19.667 -13 -27 -22c-7.33301 -9.00293 -13.333 -19.1699 -18 -30.501c-4.66699 -11.335 -7.66699 -23.002 -9 -35.001h39c0 16.668 5 29.335 15 38c10 8.67383 22.667 13.0068 38 12.999
c8.66699 0 18 -2.33301 28 -7s20.667 -10 32 -16s23.333 -11.333 36 -16s25.667 -7 39 -7c13.334 0.00488281 25.001 2.83789 35.001 8.5c10 5.66895 18.5 13.002 25.5 22c7.00098 9 12.668 19.167 17.001 30.5c4.33496 11.333 7.50195 22.666 9.5 33.999zM277.998 478.005
c30 -0.000976562 56.333 -6.33594 79 -19.002c22.667 -12.667 41.5 -29.334 56.5 -50c15 -20.667 26.333 -44.167 34 -70.5s11.5 -53.166 11.5 -80.499c-0.00292969 -27.333 -3.83594 -54.166 -11.5 -80.499c-7.66699 -26.333 -19 -49.833 -34 -70.5
c-15.001 -20.667 -33.834 -37.334 -56.5 -50.001c-22.667 -12.667 -49 -19 -79 -19s-56.333 6.33301 -79 19s-41.5 29.334 -56.5 50.001s-26.333 44.167 -34 70.5s-11.5 53.166 -11.5 80.499c0 27.334 3.83301 54.167 11.5 80.5s19 49.833 34 70.5
s33.833 37.334 56.5 50.001s49 19 79 19zM277.998 531.003c-39.333 0 -74.168 -7.33496 -104.501 -22.002s-55.833 -34.334 -76.5 -59c-20.667 -24.667 -36.334 -53.5 -47.001 -86.5s-16 -68.167 -16 -105.5s5.33301 -72.5 16 -105.5s26.334 -61.833 47.001 -86.5
s46.167 -44.167 76.5 -58.5s65.166 -21.5 104.499 -21.5c39.334 0 74.167 7.16699 104.5 21.5s55.833 33.833 76.5 58.5s36.334 53.5 47.001 86.5c10.6689 33 16.002 68.167 16 105.5c0 37.334 -5.33301 72.501 -16 105.501s-26.334 61.833 -47 86.5
c-20.667 24.667 -46.167 44.334 -76.5 59.001c-30.333 14.6699 -65.166 22.0029 -104.499 22z" />
    <glyph glyph-name="odieresis" unicode="&#xf6;" horiz-adv-x="556" 
d="M156 605h68v101h-68v-101zM333 605h68v101h-68v-101zM278 478c30 -0.000976562 56.333 -6.33496 79 -19.001c22.667 -12.667 41.5 -29.334 56.5 -50c15 -20.667 26.333 -44.167 34 -70.5s11.5 -53.166 11.5 -80.499c-0.00292969 -27.333 -3.83594 -54.166 -11.5 -80.499
c-7.66699 -26.333 -19 -49.833 -34 -70.5c-15.001 -20.667 -33.834 -37.334 -56.5 -50.001c-22.667 -12.667 -49 -19 -79 -19s-56.333 6.33301 -79 19s-41.5 29.334 -56.5 50.001s-26.333 44.167 -34 70.5s-11.5 53.166 -11.5 80.499s3.83301 54.166 11.5 80.499
s19 49.833 34 70.5s33.833 37.334 56.5 50.001s49 19 79 19zM278 530.999c-39.333 0 -74.168 -7.33496 -104.501 -22.002s-55.833 -34.334 -76.5 -59c-20.667 -24.667 -36.334 -53.5 -47.001 -86.5s-16 -68.167 -16 -105.5s5.33301 -72.5 16 -105.5
s26.334 -61.833 47.001 -86.5s46.167 -44.167 76.5 -58.5s65.166 -21.5 104.499 -21.5c39.334 0 74.167 7.16699 104.5 21.5s55.833 33.833 76.5 58.5s36.334 53.5 47.001 86.5c10.6689 33 16.002 68.167 16 105.5c0 37.334 -5.33301 72.501 -16 105.501
s-26.334 61.833 -47 86.5c-20.667 24.667 -46.167 44.334 -76.5 59.001c-30.333 14.6699 -65.166 22.0029 -104.499 22z" />
    <glyph glyph-name="divide" unicode="&#xf7;" horiz-adv-x="600" 
d="M244 50c0 -15.333 5.66699 -28.333 17 -39c11.334 -10.667 24.667 -16 40 -16c14.667 0 27.5 5.66699 38.5 17s16.5 24 16.5 38c0 15.333 -5.5 28.5 -16.5 39.5s-24.167 16.5 -39.5 16.5s-28.5 -5.5 -39.5 -16.5s-16.5 -24.167 -16.5 -39.5zM244 453
c0 -15.333 5.66699 -28.501 17 -39.501c11.334 -11 24.667 -16.5 40 -16.5c14.667 0 27.5 5.83301 38.5 17.5s16.5 24.5 16.5 38.5c0 15.334 -5.5 28.501 -16.5 39.501s-24.167 16.5 -39.5 16.5s-28.5 -5.5 -39.5 -16.5s-16.5 -24.167 -16.5 -39.5zM49 224.999h503v53h-503
v-53z" />
    <glyph glyph-name="oslash" unicode="&#xf8;" horiz-adv-x="556" 
d="M522 499l-22.001 19.999l-52 -56c-20 21.334 -44.333 38.001 -72.999 50.001c-28.667 12 -61 18 -97 18c-39.333 0 -74.166 -7.33301 -104.499 -22s-55.833 -34.334 -76.5 -59c-20.667 -24.667 -36.334 -53.5 -47.001 -86.5s-16 -68.167 -16 -105.5
c0 -34.667 4.66699 -67.667 14 -99s23.333 -59 42 -83l-61 -67l22 -19l59 63c20 -21.333 44 -37.833 72 -49.5s60 -17.5 96 -17.5c39.333 0 74.166 7.16699 104.499 21.5s55.833 33.833 76.5 58.5s36.334 53.5 47.001 86.5c10.6689 33 16.002 68.167 16 105.5
c0 34 -4.5 66.5 -13.5 97.5s-22.5 59.167 -40.5 84.5zM150.999 96.999l273 295c12 -19.333 20.833 -40.5 26.5 -63.5s8.5 -46.5 8.5 -70.5c-0.00292969 -27.333 -3.83594 -54.166 -11.5 -80.499c-7.66699 -26.333 -19 -49.833 -34 -70.5
c-15.001 -20.667 -33.834 -37.334 -56.5 -50.001c-22.667 -12.667 -49 -19 -79 -19c-28 0 -52.667 5.5 -74 16.5s-39 25.167 -53 42.5zM405.999 417.999l-272.999 -295.001c-12.667 20 -21.834 41.5 -27.501 64.5s-8.5 46.5 -8.5 70.5c0 27.334 3.83301 54.167 11.5 80.5
s19 49.833 34 70.5s33.833 37.334 56.5 50.001s49 19 79 19c28 0 52.667 -5.5 74 -16.5s39.333 -25.5 54 -43.5z" />
    <glyph glyph-name="ugrave" unicode="&#xf9;" horiz-adv-x="537" 
d="M145 729l132 -141h51l-105 141h-78zM478 0l-0.00390625 516h-63v-271c0 -26 -3 -51.5 -9 -76.5c-6.00098 -25 -15.334 -47.167 -28 -66.5c-12.667 -19.333 -28.667 -34.833 -48 -46.5s-42.666 -17.5 -69.999 -17.5c-50 0 -85.167 12 -105.5 36
s-31.166 59.333 -32.499 106v336h-63v-335c0 -30.667 3.33301 -58 10 -82s17.167 -44.333 31.5 -61s33 -29.5 56 -38.5s50.833 -13.5 83.5 -13.5c38.667 0 73.834 9.16699 105.501 27.5s55.834 44.833 72.501 79.5h2v-93h58z" />
    <glyph glyph-name="uacute" unicode="&#xfa;" horiz-adv-x="537" 
d="M260 588l132 141h-78l-105 -141h51zM478 0l-0.00390625 516h-63v-271c0 -26 -3 -51.5 -9 -76.5c-6.00098 -25 -15.334 -47.167 -28 -66.5c-12.667 -19.333 -28.667 -34.833 -48 -46.5s-42.666 -17.5 -69.999 -17.5c-50 0 -85.167 12 -105.5 36
s-31.166 59.333 -32.499 106v336h-63v-335c0 -30.667 3.33301 -58 10 -82s17.167 -44.333 31.5 -61s33 -29.5 56 -38.5s50.833 -13.5 83.5 -13.5c38.667 0 73.834 9.16699 105.501 27.5s55.834 44.833 72.501 79.5h2v-93h58z" />
    <glyph glyph-name="ucircumflex" unicode="&#xfb;" horiz-adv-x="537" 
d="M417 588l-114 141h-69l-114 -141h58l88 102l86 -102h65zM478 0l-0.00390625 516h-63v-271c0 -26 -3 -51.5 -9 -76.5c-6.00098 -25 -15.334 -47.167 -28 -66.5c-12.667 -19.333 -28.667 -34.833 -48 -46.5s-42.666 -17.5 -69.999 -17.5c-50 0 -85.167 12 -105.5 36
s-31.166 59.333 -32.499 106v336h-63v-335c0 -30.667 3.33301 -58 10 -82s17.167 -44.333 31.5 -61s33 -29.5 56 -38.5s50.833 -13.5 83.5 -13.5c38.667 0 73.834 9.16699 105.501 27.5s55.834 44.833 72.501 79.5h2v-93h58z" />
    <glyph glyph-name="udieresis" unicode="&#xfc;" horiz-adv-x="537" 
d="M146 605h68v101h-68v-101zM323 605h68v101h-68v-101zM478 0l-0.00390625 516h-63v-271c0 -26 -3 -51.5 -9 -76.5c-6.00098 -25 -15.334 -47.167 -28 -66.5c-12.667 -19.333 -28.667 -34.833 -48 -46.5s-42.666 -17.5 -69.999 -17.5c-50 0 -85.167 12 -105.5 36
s-31.166 59.333 -32.499 106v336h-63v-335c0 -30.667 3.33301 -58 10 -82s17.167 -44.333 31.5 -61s33 -29.5 56 -38.5s50.833 -13.5 83.5 -13.5c38.667 0 73.834 9.16699 105.501 27.5s55.834 44.833 72.501 79.5h2v-93h58z" />
    <glyph glyph-name="yacute" unicode="&#xfd;" horiz-adv-x="463" 
d="M223 588l132 141h-78l-105 -141h51zM2 516l206.001 -513.997l-22 -58c-5.33301 -12 -10.333 -23 -15 -33s-10.334 -18.5 -17.001 -25.5s-14.5 -12.5 -23.5 -16.5s-20.5 -6 -34.5 -6c-7.33301 0 -14.5 0.5 -21.5 1.5s-14.167 2.16699 -21.5 3.5v-53
c5.33301 -1.99805 11.5 -3.16504 18.5 -3.50098c7 -0.333008 16.833 -0.833008 29.5 -1.5c20 -0.000976562 36.5 1.83203 49.5 5.49902s24.333 9.66699 34 18s18.5 19.666 26.5 33.999s16.667 32.5 26 54.5l224 594h-63l-159 -440l-170 440h-67z" />
    <glyph glyph-name="thorn" unicode="&#xfe;" horiz-adv-x="574" 
d="M60 714l-0.000976562 -903.999h63v288h2c6.66699 -18.667 16.167 -35 28.5 -49s26.5 -25.667 42.5 -35s33.333 -16.333 52 -21s37.334 -7 56.001 -7c39.334 0 73.501 7.16699 102.501 21.5s53.167 34 72.5 59s33.666 54 42.999 87s14 67.833 14 104.5
c-0.00390625 36.667 -4.6709 71.5 -14 104.5c-9.33398 33 -23.667 62 -43 87s-43.5 44.833 -72.5 59.5c-29 14.6699 -63.167 22.0029 -102.5 22c-18.667 0 -37.334 -2.33301 -56 -7c-18.667 -4.66699 -36 -11.834 -52 -21.501s-30.167 -21.5 -42.5 -35.5
c-12.333 -14.001 -21.833 -30.334 -28.5 -49h-2v296h-63zM472.999 258.001c0 -26.667 -3.16602 -53.168 -9.49902 -79.501s-16.333 -49.833 -30 -70.5s-31.167 -37.5 -52.5 -50.5s-47 -19.5 -77 -19.5c-33.333 0 -61.5 6.5 -84.5 19.5s-41.667 29.833 -56 50.5
c-14.334 20.667 -24.667 44.167 -31 70.5s-9.5 52.833 -9.5 79.5s3.16699 53.167 9.5 79.5s16.666 49.833 30.999 70.5s33 37.5 56 50.5s51.167 19.5 84.5 19.5c30 0 55.667 -6.5 77 -19.5s38.833 -29.833 52.5 -50.499c13.667 -20.667 23.667 -44.167 30 -70.5
c6.33496 -26.333 9.50195 -52.833 9.5 -79.5z" />
    <glyph glyph-name="ydieresis" unicode="&#xff;" horiz-adv-x="463" 
d="M109 605h68v101h-68v-101zM286 605h68v101h-68v-101zM2 516l206.001 -513.997l-22 -58c-5.33301 -12 -10.333 -23 -15 -33s-10.334 -18.5 -17.001 -25.5s-14.5 -12.5 -23.5 -16.5s-20.5 -6 -34.5 -6c-7.33301 0 -14.5 0.5 -21.5 1.5s-14.167 2.16699 -21.5 3.5v-53
c5.33301 -1.99805 11.5 -3.16504 18.5 -3.50098c7 -0.333008 16.833 -0.833008 29.5 -1.5c20 -0.000976562 36.5 1.83203 49.5 5.49902s24.333 9.66699 34 18s18.5 19.666 26.5 33.999s16.667 32.5 26 54.5l224 594h-63l-159 -440l-170 440h-67z" />
    <glyph glyph-name="Amacron" unicode="&#x100;" horiz-adv-x="630" 
d="M173 280l143 366l138 -366h-281zM281 714l-287 -714h72l86 222h325l87 -222h73l-280 714h-76zM151 809h328v-45h-328v45z" />
    <glyph glyph-name="amacron" unicode="&#x101;" 
d="M54 358l62.999 -0.00488281c1.33301 42 14.666 72.5 39.999 91.5s58 28.5 98 28.5c18.667 0 36.167 -1.5 52.5 -4.5c16.334 -3 30.667 -8.5 43 -16.5c12.334 -8 22.001 -18.833 29 -32.499c7 -13.667 10.5 -31.167 10.5 -52.5
c-0.00292969 -14 -1.83594 -25.333 -5.5 -33.999c-3.66797 -8.66699 -8.83496 -15.5 -15.5 -20.499c-6.66699 -5 -15 -8.5 -24.999 -10.5c-10 -2 -21.667 -3.66699 -35 -5c-34 -4 -67.5 -8.16699 -100.5 -12.5s-62.667 -11.833 -89 -22.5s-47.5 -26.167 -63.5 -46.5
s-24 -48.5 -24 -84.5c0 -26 4.5 -48.5 13.5 -67.5s21.333 -34.667 37 -47s34 -21.333 55 -27s43.5 -8.5 67.5 -8.5c25.333 0 47.166 2.33301 65.499 7c18.334 4.66699 34.667 11.334 49 20.001s27.333 19.5 39 32.5s23.167 27.833 34.5 44.5h2
c0 -13.333 0.833008 -25.5 2.5 -36.5s5.16699 -20.5 10.5 -28.5s12.833 -14.167 22.5 -18.5s22.5 -6.5 38.5 -6.5c8.66699 0 15.834 0.333008 21.501 1s12.167 1.66699 19.5 3v53c-6 -2.66699 -12.667 -4 -20 -4c-24.667 0 -37 12.667 -37 38v274
c0 34.667 -5.66699 62.834 -17 84.501s-26 38.5 -44 50.5s-38.333 20.167 -60.999 24.5c-22.667 4.33301 -45.334 6.5 -68 6.5c-30 0 -57.333 -3.33301 -82 -10s-46.167 -17 -64.5 -31s-32.833 -32 -43.5 -54s-17 -48 -19 -78zM389.999 281.995l0.000976562 -81.998
c-0.00195312 -25.333 -4.83496 -48 -14.5 -68c-9.66699 -20 -22.667 -37 -39 -51s-35.5 -24.667 -57.5 -32s-45 -11 -69 -11c-14.667 0 -29 2.33301 -43 7s-26.333 11.5 -37 20.5s-19.167 19.667 -25.5 32s-9.5 26.5 -9.5 42.5c0 25.333 7.5 44.833 22.5 58.5
s34.167 24.167 57.5 31.5s49.166 12.833 77.499 16.5s55.833 7.83398 82.5 12.5c8.66699 1.33496 18.667 3.66797 30 6.99902c11.334 3.33398 19.001 8.66699 23 15.999h2zM107 629.997h328v-45h-328v45z" />
    <glyph glyph-name="Abreve" unicode="&#x102;" horiz-adv-x="630" 
d="M173 280l143 366l138 -366h-281zM281 714l-287 -714h72l86 222h325l87 -222h73l-280 714h-76zM211 891c0.666992 -13.335 4 -25.165 10 -35.4971c6 -10.3369 13.667 -19.0039 23 -26.001c9.33301 -7.00586 20 -12.1729 32 -15.5c12 -3.3457 24.333 -5.0127 37 -5
c25.333 0 48.333 7.16699 69 21.5s33 34.5 37 60.5h39c-5.33301 -40.001 -20.833 -71.168 -46.5 -93.5c-25.667 -22.335 -58.5 -33.502 -98.5 -33.501c-40.667 0 -73.5 11 -98.5 33c-25 22.001 -39.167 53.334 -42.5 93.999h39v0z" />
    <glyph glyph-name="abreve" unicode="&#x103;" 
d="M54 358l62.999 -0.00488281c1.33301 42 14.666 72.5 39.999 91.5s58 28.5 98 28.5c18.667 0 36.167 -1.5 52.5 -4.5c16.334 -3 30.667 -8.5 43 -16.5c12.334 -8 22.001 -18.833 29 -32.499c7 -13.667 10.5 -31.167 10.5 -52.5
c-0.00292969 -14 -1.83594 -25.333 -5.5 -33.999c-3.66797 -8.66699 -8.83496 -15.5 -15.5 -20.499c-6.66699 -5 -15 -8.5 -24.999 -10.5c-10 -2 -21.667 -3.66699 -35 -5c-34 -4 -67.5 -8.16699 -100.5 -12.5s-62.667 -11.833 -89 -22.5s-47.5 -26.167 -63.5 -46.5
s-24 -48.5 -24 -84.5c0 -26 4.5 -48.5 13.5 -67.5s21.333 -34.667 37 -47s34 -21.333 55 -27s43.5 -8.5 67.5 -8.5c25.333 0 47.166 2.33301 65.499 7c18.334 4.66699 34.667 11.334 49 20.001s27.333 19.5 39 32.5s23.167 27.833 34.5 44.5h2
c0 -13.333 0.833008 -25.5 2.5 -36.5s5.16699 -20.5 10.5 -28.5s12.833 -14.167 22.5 -18.5s22.5 -6.5 38.5 -6.5c8.66699 0 15.834 0.333008 21.501 1s12.167 1.66699 19.5 3v53c-6 -2.66699 -12.667 -4 -20 -4c-24.667 0 -37 12.667 -37 38v274
c0 34.667 -5.66699 62.834 -17 84.501s-26 38.5 -44 50.5s-38.333 20.167 -60.999 24.5c-22.667 4.33301 -45.334 6.5 -68 6.5c-30 0 -57.333 -3.33301 -82 -10s-46.167 -17 -64.5 -31s-32.833 -32 -43.5 -54s-17 -48 -19 -78zM389.999 281.995l0.000976562 -81.998
c-0.00195312 -25.333 -4.83496 -48 -14.5 -68c-9.66699 -20 -22.667 -37 -39 -51s-35.5 -24.667 -57.5 -32s-45 -11 -69 -11c-14.667 0 -29 2.33301 -43 7s-26.333 11.5 -37 20.5s-19.167 19.667 -25.5 32s-9.5 26.5 -9.5 42.5c0 25.333 7.5 44.833 22.5 58.5
s34.167 24.167 57.5 31.5s49.166 12.833 77.499 16.5s55.833 7.83398 82.5 12.5c8.66699 1.33496 18.667 3.66797 30 6.99902c11.334 3.33398 19.001 8.66699 23 15.999h2zM167 711.997c0.666992 -13.335 4 -25.167 10 -35.499c6 -10.3359 13.667 -19.0029 23 -26
c9.33301 -7.00684 20 -12.1738 32 -15.5c12 -3.34277 24.333 -5.00977 37 -5c25.333 0 48.333 7.16699 69 21.5s33 34.5 37 60.5h39c-5.33301 -40.001 -20.833 -71.168 -46.5 -93.5c-25.667 -22.335 -58.5 -33.502 -98.5 -33.501c-40.667 0 -73.5 11 -98.5 33
c-25 22.001 -39.167 53.334 -42.5 94h39v0z" />
    <glyph glyph-name="Aogonek" unicode="&#x104;" horiz-adv-x="630" 
d="M550 -210c-36 0 -60.998 7.66699 -74.998 23s-21 35 -21 59c0.00683594 4.66699 1.17383 11.167 3.5 19.5c2.33496 8.33301 7.50195 18.333 15.5 30c8 11.667 19.333 24.5 34 38.5c14.667 12.667 33.667 26 57 40l-87 222h-325l-86 -222h-72l287 714h76l280 -714h-34
c-16.667 -13.333 -30.667 -25.666 -42 -36.999c-11.333 -12 -20.333 -23 -27 -33s-11.167 -19.333 -13.5 -28c-2.34863 -8.66699 -3.51562 -17.334 -3.5 -26.001c0 -16 4.5 -27.833 13.5 -35.5s19.167 -11.5 30.5 -11.5c12.667 0 23.667 4.5 33 13.5
s16.666 18.167 21.999 27.5l29 -13c-14.667 -24.667 -29.834 -42 -45.501 -52s-32.167 -15 -49.5 -15zM454.002 280l-138 366l-143 -366h281z" />
    <glyph glyph-name="aogonek" unicode="&#x105;" 
d="M431 -210c-36 0 -61.0088 7.66699 -75.0088 23s-21 35 -21 59c0.0078125 4.66699 1.1748 11.167 3.5 19.5c2.33496 8.33301 7.50195 18.333 15.5 30c8 11.667 19.333 24.5 34 38.5c14.667 13.333 34.334 27 59.001 41c-6.66797 1.33301 -12.335 3 -17.001 5
c-9.33301 4.66699 -16.666 11 -21.999 19s-8.83301 17.5 -10.5 28.5c-1.67285 11 -2.50586 23.167 -2.5 36.5h-2c-11.333 -16.667 -22.833 -31.5 -34.5 -44.5s-24.667 -23.833 -39 -32.5s-30.666 -15.334 -48.999 -20.001s-40.166 -7 -65.499 -7
c-24 0 -46.5 2.83301 -67.5 8.5s-39.333 14.667 -55 27s-28 28 -37 47s-13.5 41.5 -13.5 67.5c0 36 8 64.167 24 84.5s37.167 35.833 63.5 46.5s56 18.167 89 22.5c33 4.33496 66.5 8.50195 100.5 12.5c13.334 1.33594 25.001 3.00293 35.001 5.00098
c10 2 18.333 5.5 25 10.5s11.834 11.833 15.501 20.5s5.5 20 5.5 34c0 21.333 -3.5 38.833 -10.5 52.5s-16.667 24.5 -29 32.5s-26.666 13.5 -42.999 16.5s-33.833 4.5 -52.5 4.5c-40 0 -72.667 -9.5 -98 -28.5s-38.666 -49.5 -39.999 -91.5h-63c2 30 8.33301 56 19 78
s25.167 40 43.5 54c18.333 14.001 39.833 24.334 64.5 31c24.667 6.6709 52 10.0039 82 10c22.667 -0.0078125 45.334 -2.1748 68.001 -6.5c22.667 -4.33496 43 -12.502 61 -24.5c18.001 -12.001 32.668 -28.834 44.001 -50.5c11.334 -21.667 17.001 -49.834 17 -84.5v-274
c0 -25.333 12.333 -38 37 -38c7.33398 0 14.001 1.33301 20 4v-53c-7.33301 -1.33301 -14 -2.33301 -20 -3c-1.33301 -0.666992 -3.33301 -1 -6 -1c-16.667 -13.333 -30.667 -25.666 -42 -36.999c-11.333 -12 -20.333 -23 -27 -33s-11.167 -19.333 -13.5 -28
s-3.5 -17.334 -3.5 -26.001c0 -16 4.5 -27.833 13.5 -35.5c9.00098 -7.66699 19.168 -11.5 30.5 -11.5c12.667 0 23.667 4.5 33 13.5c9.33594 9 16.6689 18.167 22 27.5l29 -13c-14.667 -24.667 -29.834 -42 -45.5 -52c-15.667 -10 -32.167 -15 -49.5 -15zM209.991 38
c24 0 46.999 3.66602 68.999 10.999s41.167 18 57.5 32s29.333 31 39 51s14.5 42.667 14.5 68v82h-2c-4 -7.33301 -11.667 -12.666 -23 -15.999s-21.333 -5.66602 -30 -6.99902c-26.667 -4.66699 -54.167 -8.83398 -82.5 -12.501s-54.166 -9.16699 -77.499 -16.5
s-42.5 -17.833 -57.5 -31.5s-22.5 -33.167 -22.5 -58.5c0 -16 3.16699 -30.167 9.5 -42.5s14.833 -23 25.5 -32s23 -15.833 37 -20.5s28.333 -7 43 -7z" />
    <glyph glyph-name="Cacute" unicode="&#x106;" horiz-adv-x="704" 
d="M594 498c-6 27.333 -15.8311 51.834 -29.498 73.501s-30.334 39.834 -50.001 54.5c-19.667 14.668 -41.334 25.835 -65 33.5c-23.667 7.67188 -48.5 11.5049 -74.5 11.5c-47.333 0 -88 -9 -122 -27s-61.833 -41.833 -83.5 -71.5s-37.667 -63.167 -48 -100.5
s-15.5 -75.666 -15.5 -114.999c0 -38.667 5.16699 -76.834 15.5 -114.5c10.333 -37.667 26.333 -71.334 48 -101.001s49.5 -53.5 83.5 -71.5s74.667 -27 122 -27c33.333 0 63.333 6 90 18s49.667 28.333 69 49s35 44.834 47 72.501s19.667 57.5 23 89.5h68
c-4.66699 -44 -15 -83.667 -31 -119c-16.001 -35.333 -36.668 -65.333 -62 -90c-25.334 -24.667 -55.167 -43.667 -89.5 -57s-72.5 -20 -114.5 -20c-56 0 -105.167 10.167 -147.5 30.5s-77.5 47.5 -105.5 81.5s-49 73.333 -63 118s-21 91.667 -21 141s7 96.333 21 141
s35 84.167 63 118.5s63.167 61.666 105.5 81.999s91.5 30.5 147.5 30.5c34 0 67.167 -5 99.5 -15s61.666 -24.833 87.999 -44.5s48.333 -43.834 66 -72.501c17.668 -28.667 28.835 -61.667 33.5 -99h-68zM320.002 786.001l105 141h78l-132 -141h-51z" />
    <glyph glyph-name="cacute" unicode="&#x107;" 
d="M424 354c-8.66699 38.667 -24.665 68.9961 -47.998 90.9961s-56 33 -98 33c-30 -0.000976562 -56.333 -6.33398 -79 -19c-22.667 -12.667 -41.5 -29.334 -56.5 -50c-15 -20.667 -26.333 -44.167 -34 -70.5s-11.5 -53.166 -11.5 -80.499s3.83301 -54.166 11.5 -80.499
s19 -49.833 34 -70.5s33.833 -37.334 56.5 -50.001s49 -19 79 -19c19.334 0 37.667 3.66699 55 11s32.666 17.5 45.999 30.5s24.333 28.5 33 46.5s14 37.667 16 59h63c-8.66699 -62.667 -31.667 -111.5 -69 -146.5s-85.333 -52.5 -144 -52.5
c-39.333 0 -74.166 7.16699 -104.499 21.5s-55.833 33.833 -76.5 58.5s-36.334 53.5 -47.001 86.5s-16 68.167 -16 105.5c0 37.334 5.33301 72.501 16 105.501s26.334 61.833 47.001 86.5s46.167 44.334 76.5 59.001c30.333 14.6699 65.166 22.0029 104.499 22
c55.333 -0.000976562 102.166 -14.668 140.499 -44c38.334 -29.333 61.167 -73.666 68.5 -132.999h-63zM208.002 587.996l105 141h78l-132 -141h-51z" />
    <glyph glyph-name="Ccircumflex" unicode="&#x108;" horiz-adv-x="704" 
d="M594 498l68.002 0.00195312c-4.66699 37.333 -15.834 70.333 -33.501 99c-17.667 28.668 -39.667 52.835 -66 72.5c-26.334 19.6689 -55.667 34.502 -88 44.5c-32.333 10 -65.5 15 -99.5 15c-56 -0.00292969 -105.167 -10.1699 -147.5 -30.5
c-42.333 -20.334 -77.5 -47.667 -105.5 -82s-49 -73.833 -63 -118.5s-21 -91.667 -21 -141s7 -96.333 21 -141s35 -84 63 -118s63.167 -61.167 105.5 -81.5s91.5 -30.5 147.5 -30.5c42 0 80.167 6.66699 114.5 20s64.166 32.333 89.499 57s46 54.667 62 90
c16.0029 35.333 26.3359 75 31 119h-68c-3.33594 -32 -11.0029 -61.833 -23.001 -89.5c-12.001 -27.667 -27.668 -51.834 -47 -72.501c-19.335 -20.667 -42.335 -37 -69 -49c-26.667 -12 -56.667 -18 -90 -18c-47.333 0 -88 9 -122 27s-61.833 41.833 -83.5 71.5
s-37.667 63.334 -48 101.001s-15.5 75.834 -15.5 114.501c0 39.334 5.16699 77.667 15.5 115c10.333 37.334 26.333 70.834 48 100.5c21.667 29.667 49.5 53.5 83.5 71.499c34 18 74.667 27 122 27c26 0 50.833 -3.83301 74.5 -11.5s45.334 -18.834 65.001 -33.501
s36.334 -32.834 50 -54.501c13.6689 -21.667 23.502 -46.167 29.5 -73.5zM438.002 779.002l-86 102l-88 -102h-57l113 141h69l114 -141h-65z" />
    <glyph glyph-name="ccircumflex" unicode="&#x109;" 
d="M424 354l62.9961 -0.000976562c-7.33301 59.333 -30.166 103.666 -68.499 132.999s-85.166 44 -140.499 44c-39.333 0 -74.166 -7.33301 -104.499 -22s-55.833 -34.334 -76.5 -59c-20.667 -24.667 -36.334 -53.5 -47.001 -86.5s-16 -68.167 -16 -105.5
s5.33301 -72.5 16 -105.5s26.334 -61.833 47.001 -86.5s46.167 -44.167 76.5 -58.5s65.166 -21.5 104.499 -21.5c58.667 0 106.667 17.5 144 52.5s60.333 83.833 69 146.5h-63c-2.00098 -21.333 -7.33398 -41 -16 -59c-8.66699 -18 -19.667 -33.5 -33 -46.5
s-28.666 -23.167 -45.999 -30.5s-35.666 -11 -54.999 -11c-30 0 -56.333 6.33301 -79 19s-41.5 29.334 -56.5 50.001s-26.333 44.167 -34 70.5s-11.5 53.166 -11.5 80.499c0 27.334 3.83301 54.167 11.5 80.5s19 49.833 34 70.5s33.833 37.334 56.5 50.001s49 19 79 19
c42 0 74.667 -11 98 -33s39.333 -52.333 48 -90.999zM344.996 584.999l-86 102l-88 -102h-57l113 141h69l114 -141h-65z" />
    <glyph glyph-name="Cdotaccent" unicode="&#x10a;" horiz-adv-x="704" 
d="M594 498l68.002 0.00195312c-4.66699 37.333 -15.834 70.333 -33.501 99c-17.667 28.668 -39.667 52.835 -66 72.5c-26.334 19.6689 -55.667 34.502 -88 44.5c-32.333 10 -65.5 15 -99.5 15c-56 -0.00292969 -105.167 -10.1699 -147.5 -30.5
c-42.333 -20.334 -77.5 -47.667 -105.5 -82s-49 -73.833 -63 -118.5s-21 -91.667 -21 -141s7 -96.333 21 -141s35 -84 63 -118s63.167 -61.167 105.5 -81.5s91.5 -30.5 147.5 -30.5c42 0 80.167 6.66699 114.5 20s64.166 32.333 89.499 57s46 54.667 62 90
c16.0029 35.333 26.3359 75 31 119h-68c-3.33594 -32 -11.0029 -61.833 -23.001 -89.5c-12.001 -27.667 -27.668 -51.834 -47 -72.501c-19.335 -20.667 -42.335 -37 -69 -49c-26.667 -12 -56.667 -18 -90 -18c-47.333 0 -88 9 -122 27s-61.833 41.833 -83.5 71.5
s-37.667 63.334 -48 101.001s-15.5 75.834 -15.5 114.501c0 39.334 5.16699 77.667 15.5 115c10.333 37.334 26.333 70.834 48 100.5c21.667 29.667 49.5 53.5 83.5 71.499c34 18 74.667 27 122 27c26 0 50.833 -3.83301 74.5 -11.5s45.334 -18.834 65.001 -33.501
s36.334 -32.834 50 -54.501c13.6689 -21.667 23.502 -46.167 29.5 -73.5zM321.002 880.002h68v-101h-68v101z" />
    <glyph glyph-name="cdotaccent" unicode="&#x10b;" 
d="M424 354l62.9961 -0.000976562c-7.33301 59.333 -30.166 103.666 -68.499 132.999s-85.166 44 -140.499 44c-39.333 0 -74.166 -7.33301 -104.499 -22s-55.833 -34.334 -76.5 -59c-20.667 -24.667 -36.334 -53.5 -47.001 -86.5s-16 -68.167 -16 -105.5
s5.33301 -72.5 16 -105.5s26.334 -61.833 47.001 -86.5s46.167 -44.167 76.5 -58.5s65.166 -21.5 104.499 -21.5c58.667 0 106.667 17.5 144 52.5s60.333 83.833 69 146.5h-63c-2.00098 -21.333 -7.33398 -41 -16 -59c-8.66699 -18 -19.667 -33.5 -33 -46.5
s-28.666 -23.167 -45.999 -30.5s-35.666 -11 -54.999 -11c-30 0 -56.333 6.33301 -79 19s-41.5 29.334 -56.5 50.001s-26.333 44.167 -34 70.5s-11.5 53.166 -11.5 80.499c0 27.334 3.83301 54.167 11.5 80.5s19 49.833 34 70.5s33.833 37.334 56.5 50.001s49 19 79 19
c42 0 74.667 -11 98 -33s39.333 -52.333 48 -90.999zM227.996 685.999h68v-101h-68v101z" />
    <glyph glyph-name="Ccaron" unicode="&#x10c;" horiz-adv-x="704" 
d="M594 498l68.002 0.00195312c-4.66699 37.333 -15.834 70.333 -33.501 99c-17.667 28.668 -39.667 52.835 -66 72.5c-26.334 19.6689 -55.667 34.502 -88 44.5c-32.333 10 -65.5 15 -99.5 15c-56 -0.00292969 -105.167 -10.1699 -147.5 -30.5
c-42.333 -20.334 -77.5 -47.667 -105.5 -82s-49 -73.833 -63 -118.5s-21 -91.667 -21 -141s7 -96.333 21 -141s35 -84 63 -118s63.167 -61.167 105.5 -81.5s91.5 -30.5 147.5 -30.5c42 0 80.167 6.66699 114.5 20s64.166 32.333 89.499 57s46 54.667 62 90
c16.0029 35.333 26.3359 75 31 119h-68c-3.33594 -32 -11.0029 -61.833 -23.001 -89.5c-12.001 -27.667 -27.668 -51.834 -47 -72.501c-19.335 -20.667 -42.335 -37 -69 -49c-26.667 -12 -56.667 -18 -90 -18c-47.333 0 -88 9 -122 27s-61.833 41.833 -83.5 71.5
s-37.667 63.334 -48 101.001s-15.5 75.834 -15.5 114.501c0 39.334 5.16699 77.667 15.5 115c10.333 37.334 26.333 70.834 48 100.5c21.667 29.667 49.5 53.5 83.5 71.499c34 18 74.667 27 122 27c26 0 50.833 -3.83301 74.5 -11.5s45.334 -18.834 65.001 -33.501
s36.334 -32.834 50 -54.501c13.6689 -21.667 23.502 -46.167 29.5 -73.5zM222.002 923.002l113 -141h69l114 141h-58l-88 -102l-86 102h-64z" />
    <glyph glyph-name="ccaron" unicode="&#x10d;" 
d="M424 354l62.9961 -0.000976562c-7.33301 59.333 -30.166 103.666 -68.499 132.999s-85.166 44 -140.499 44c-39.333 0 -74.166 -7.33301 -104.499 -22s-55.833 -34.334 -76.5 -59c-20.667 -24.667 -36.334 -53.5 -47.001 -86.5s-16 -68.167 -16 -105.5
s5.33301 -72.5 16 -105.5s26.334 -61.833 47.001 -86.5s46.167 -44.167 76.5 -58.5s65.166 -21.5 104.499 -21.5c58.667 0 106.667 17.5 144 52.5s60.333 83.833 69 146.5h-63c-2.00098 -21.333 -7.33398 -41 -16 -59c-8.66699 -18 -19.667 -33.5 -33 -46.5
s-28.666 -23.167 -45.999 -30.5s-35.666 -11 -54.999 -11c-30 0 -56.333 6.33301 -79 19s-41.5 29.334 -56.5 50.001s-26.333 44.167 -34 70.5s-11.5 53.166 -11.5 80.499c0 27.334 3.83301 54.167 11.5 80.5s19 49.833 34 70.5s33.833 37.334 56.5 50.001s49 19 79 19
c42 0 74.667 -11 98 -33s39.333 -52.333 48 -90.999zM129.996 725.999l113 -141h69l114 141h-58l-88 -102l-86 102h-64z" />
    <glyph glyph-name="Dcaron" unicode="&#x10e;" horiz-adv-x="685" 
d="M72 714v-714h247c108.667 2.66699 190.5 33.167 245.5 91.5s82.5 146.833 82.5 265.5s-27.5 207.167 -82.5 265.5s-136.833 88.833 -245.5 91.5h-247zM140 58v598h145c51.333 0 95.5 -5.5 132.5 -16.5s67.5 -28.5 91.5 -52.5s41.667 -55 53 -93s17 -83.667 17 -137
c-0.00195312 -53.333 -5.66895 -99 -17 -137c-11.335 -38 -29.002 -69 -53 -93c-24 -24 -54.5 -41.5 -91.5 -52.5s-81.167 -16.5 -132.5 -16.5h-145zM153 900l113 -141h69l114 141h-58l-88 -102l-86 102h-64z" />
    <glyph glyph-name="dcaron" unicode="&#x10f;" horiz-adv-x="574" 
d="M657 767c0 -14.667 -1.83301 -29.166 -5.5 -43.499c-3.66699 -14.335 -9.16699 -27.668 -16.5 -40c-7.33691 -12.335 -16.5039 -23.168 -27.5 -32.5c-11 -9.33594 -23.833 -16.0029 -38.5 -20.001v43c8 2.66699 15 7.66699 21 15s11 15.5 15 24.5
c4.00488 9.00293 6.83789 18.3359 8.5 28c1.66699 9.66699 2.16699 18.167 1.5 25.5h-32v106h74v-106zM456 0.000976562l-0.00292969 98.001h-2c-6.66797 -16.667 -16.501 -32 -29.5 -46c-13 -14 -27.833 -25.833 -44.499 -35.5
c-16.667 -9.66699 -34.5 -17.167 -53.499 -22.5c-19 -5.33301 -37.833 -8 -56.499 -8c-39.333 0 -73.5 7.16699 -102.5 21.5s-53.167 34 -72.5 59s-33.666 54 -42.999 87s-14 67.833 -14 104.5s4.66699 71.5 14 104.5s23.666 62 42.999 87s43.5 44.833 72.5 59.5
c29 14.6699 63.167 22.0029 102.5 22c19.334 0 38.167 -2.33301 56.5 -7c18.334 -4.66699 35.501 -11.834 51.5 -21.501c16 -9.66699 30.167 -21.5 42.5 -35.5c12.333 -14.001 21.833 -30.334 28.5 -49h2v296h63v-714h-58zM100.997 258.002
c0 -26.667 3.16406 -53.168 9.49707 -79.501s16.333 -49.833 30 -70.5s31.167 -37.5 52.5 -50.5s47 -19.5 77 -19.5c33.334 0 61.501 6.5 84.501 19.5c23.001 13 41.668 29.833 56.001 50.5c14.334 20.667 24.667 44.167 31 70.5c6.33496 26.333 9.50195 52.833 9.5 79.5
c0 26.667 -3.16699 53.167 -9.5 79.5s-16.666 49.833 -30.999 70.5s-33 37.5 -56 50.5s-51.167 19.5 -84.5 19.5c-30 0 -55.667 -6.5 -77 -19.5s-38.833 -29.833 -52.5 -50.499c-13.667 -20.667 -23.667 -44.167 -30 -70.5s-9.5 -52.833 -9.5 -79.5z" />
    <glyph glyph-name="Dcroat" unicode="&#x110;" horiz-adv-x="685" 
d="M72 714v-321h-72v-45h72v-348h247c108.667 2.66699 190.5 33.167 245.5 91.5s82.5 146.833 82.5 265.5s-27.5 207.167 -82.5 265.5s-136.833 88.833 -245.5 91.5h-247zM140 393v263h145c51.333 0 95.5 -5.5 132.5 -16.5s67.5 -28.5 91.5 -52.5s41.667 -55 53 -93
s17 -83.667 17 -137c-0.00195312 -53.333 -5.66895 -99 -17 -137c-11.335 -38 -29.002 -69 -53 -93c-24 -24 -54.5 -41.5 -91.5 -52.5s-81.167 -16.5 -132.5 -16.5h-145v290h236v45h-236z" />
    <glyph glyph-name="dcroat" unicode="&#x111;" horiz-adv-x="574" 
d="M451 644l-0.00292969 70.001h63v-70h91v-53h-91v-591h-58v98h-2c-6.66797 -16.667 -16.501 -32 -29.5 -46c-13 -14 -27.833 -25.833 -44.499 -35.5c-16.667 -9.66699 -34.5 -17.167 -53.499 -22.5c-19 -5.33301 -37.833 -8 -56.499 -8
c-39.333 0 -73.5 7.16699 -102.5 21.5s-53.167 34 -72.5 59s-33.666 54 -42.999 87s-14 67.833 -14 104.5s4.66699 71.5 14 104.5s23.666 62 42.999 87s43.5 44.833 72.5 59.5c29 14.6699 63.167 22.0029 102.5 22c19.334 0 38.167 -2.33301 56.5 -7
c18.334 -4.66699 35.501 -11.834 51.5 -21.501c16 -9.66699 30.167 -21.5 42.5 -35.5c12.333 -14.001 21.833 -30.334 28.5 -49h2v173h-104v53h104zM100.997 258.001c0 -26.667 3.16406 -53.168 9.49707 -79.501s16.333 -49.833 30 -70.5s31.167 -37.5 52.5 -50.5
s47 -19.5 77 -19.5c33.334 0 61.501 6.5 84.501 19.5c23.001 13 41.668 29.833 56.001 50.5c14.334 20.667 24.667 44.167 31 70.5c6.33496 26.333 9.50195 52.833 9.5 79.5c0 26.667 -3.16699 53.167 -9.5 79.5s-16.666 49.833 -30.999 70.5s-33 37.5 -56 50.5
s-51.167 19.5 -84.5 19.5c-30 0 -55.667 -6.5 -77 -19.5s-38.833 -29.833 -52.5 -50.499c-13.667 -20.667 -23.667 -44.167 -30 -70.5s-9.5 -52.833 -9.5 -79.5z" />
    <glyph glyph-name="Emacron" unicode="&#x112;" horiz-adv-x="593" 
d="M72 714v-714h498v58h-430v282h398v58h-398v258h425v58h-493zM157 809h328v-45h-328v45z" />
    <glyph glyph-name="emacron" unicode="&#x113;" 
d="M431 294h-334.002c2.66699 23.333 8.16699 46.166 16.5 68.499c8.33301 22.334 19.5 42.001 33.5 59.001s31 30.667 51 41c20 10.335 43 15.502 69 15.5c25.334 0 48.001 -5.16699 68.001 -15.5s37 -24 51 -41s24.833 -36.5 32.5 -58.5s11.834 -45 12.501 -69z
M96.998 241l396.998 0.00292969c1.33105 36 -2.00195 71.5 -10 106.5c-8 35 -21.167 66 -39.5 93s-42.166 48.833 -71.499 65.5c-29.333 16.6699 -64.666 25.0029 -105.999 25c-40.667 0 -75.834 -7.83301 -105.501 -23.5c-29.667 -15.668 -53.834 -36.335 -72.501 -62.001
c-18.667 -25.667 -32.5 -54.834 -41.5 -87.501s-13.5 -66 -13.5 -100c0 -36.667 4.5 -71.5 13.5 -104.5s22.833 -62 41.5 -87s42.834 -44.667 72.501 -59s64.834 -21.5 105.501 -21.5c65.333 0 115.833 16 151.5 48s60.167 77.333 73.5 136h-63c-10 -40 -28 -72 -54 -96
s-62 -36 -108 -36c-30 0 -55.667 6.33301 -77 19s-39 28.667 -53 48s-24.167 41.166 -30.5 65.499s-9.5 47.833 -9.5 70.5zM100.996 630.003h328v-45h-328v45z" />
    <glyph glyph-name="Ebreve" unicode="&#x114;" horiz-adv-x="593" 
d="M72 714v-714h498v58h-430v282h398v58h-398v258h425v58h-493zM217 891c0.666992 -13.335 3.99902 -25.165 9.99902 -35.4971c6 -10.3369 13.667 -19.0039 23 -26.001c9.33398 -7.00586 20.001 -12.1729 32.001 -15.5c12 -3.3457 24.333 -5.0127 37 -5
c25.333 0 48.333 7.16699 69 21.5s33 34.5 37 60.5h39c-5.33301 -40.001 -20.833 -71.168 -46.5 -93.5c-25.667 -22.335 -58.5 -33.502 -98.5 -33.501c-40.667 0 -73.5 11 -98.5 33c-25 22.001 -39.167 53.334 -42.5 93.999h39v0z" />
    <glyph glyph-name="ebreve" unicode="&#x115;" 
d="M431 294h-334.002c2.66699 23.333 8.16699 46.166 16.5 68.499c8.33301 22.334 19.5 42.001 33.5 59.001s31 30.667 51 41c20 10.335 43 15.502 69 15.5c25.334 0 48.001 -5.16699 68.001 -15.5s37 -24 51 -41s24.833 -36.5 32.5 -58.5s11.834 -45 12.501 -69z
M96.998 241l396.998 0.00292969c1.33105 36 -2.00195 71.5 -10 106.5c-8 35 -21.167 66 -39.5 93s-42.166 48.833 -71.499 65.5c-29.333 16.6699 -64.666 25.0029 -105.999 25c-40.667 0 -75.834 -7.83301 -105.501 -23.5c-29.667 -15.668 -53.834 -36.335 -72.501 -62.001
c-18.667 -25.667 -32.5 -54.834 -41.5 -87.501s-13.5 -66 -13.5 -100c0 -36.667 4.5 -71.5 13.5 -104.5s22.833 -62 41.5 -87s42.834 -44.667 72.501 -59s64.834 -21.5 105.501 -21.5c65.333 0 115.833 16 151.5 48s60.167 77.333 73.5 136h-63c-10 -40 -28 -72 -54 -96
s-62 -36 -108 -36c-30 0 -55.667 6.33301 -77 19s-39 28.667 -53 48s-24.167 41.166 -30.5 65.499s-9.5 47.833 -9.5 70.5zM160.996 712.003c0.666992 -13.335 4 -25.167 10 -35.499c6 -10.3359 13.667 -19.0029 23 -26c9.33301 -7.00684 20 -12.1738 32 -15.5
c12 -3.34277 24.333 -5.00977 37 -5c25.333 0 48.333 7.16699 69 21.5s33 34.5 37 60.5h39c-5.33301 -40.001 -20.833 -71.168 -46.5 -93.5c-25.667 -22.335 -58.5 -33.502 -98.5 -33.501c-40.667 0 -73.5 11 -98.5 33c-25 22.001 -39.167 53.334 -42.5 94h39v0z" />
    <glyph glyph-name="Edotaccent" unicode="&#x116;" horiz-adv-x="593" 
d="M72 714v-714h498v58h-430v282h398v58h-398v258h425v58h-493zM287 865h68v-101h-68v101z" />
    <glyph glyph-name="edotaccent" unicode="&#x117;" 
d="M431 294h-334.002c2.66699 23.333 8.16699 46.166 16.5 68.499c8.33301 22.334 19.5 42.001 33.5 59.001s31 30.667 51 41c20 10.335 43 15.502 69 15.5c25.334 0 48.001 -5.16699 68.001 -15.5s37 -24 51 -41s24.833 -36.5 32.5 -58.5s11.834 -45 12.501 -69z
M96.998 241l396.998 0.00292969c1.33105 36 -2.00195 71.5 -10 106.5c-8 35 -21.167 66 -39.5 93s-42.166 48.833 -71.499 65.5c-29.333 16.6699 -64.666 25.0029 -105.999 25c-40.667 0 -75.834 -7.83301 -105.501 -23.5c-29.667 -15.668 -53.834 -36.335 -72.501 -62.001
c-18.667 -25.667 -32.5 -54.834 -41.5 -87.501s-13.5 -66 -13.5 -100c0 -36.667 4.5 -71.5 13.5 -104.5s22.833 -62 41.5 -87s42.834 -44.667 72.501 -59s64.834 -21.5 105.501 -21.5c65.333 0 115.833 16 151.5 48s60.167 77.333 73.5 136h-63c-10 -40 -28 -72 -54 -96
s-62 -36 -108 -36c-30 0 -55.667 6.33301 -77 19s-39 28.667 -53 48s-24.167 41.166 -30.5 65.499s-9.5 47.833 -9.5 70.5zM230.996 686.003h68v-101h-68v101z" />
    <glyph glyph-name="Eogonek" unicode="&#x118;" horiz-adv-x="593" 
d="M475 -210c-36 0 -60.998 7.66699 -74.998 23s-21 35 -21 59c0.00878906 4.66699 1.17578 11.167 3.5 19.5c2.33496 8.33301 7.50195 18.333 15.5 30c8 11.667 19.333 24.5 34 38.5c14.667 12.667 33.667 26 57 40h-417v714h493v-58h-425v-258h398v-58h-398v-282h430v-58
h-42c-16.667 -13.333 -30.667 -25.666 -42 -36.999c-11.333 -12 -20.333 -23 -27 -33s-11.167 -19.333 -13.5 -28s-3.5 -17.334 -3.5 -26.001c0 -16 4.5 -27.833 13.5 -35.5c9.00098 -7.66699 19.168 -11.5 30.5 -11.5c12.667 0 23.667 4.5 33 13.5
s16.666 18.167 21.999 27.5l29 -13c-14.667 -24.667 -29.834 -42 -45.501 -52s-32.167 -15 -49.5 -15z" />
    <glyph glyph-name="eogonek" unicode="&#x119;" 
d="M265 -210c-36 0 -61.001 7.66309 -75.001 22.9961s-21 35 -21 59c0 4.66699 1.16699 11.167 3.5 19.5s7.5 18.333 15.5 30s19.333 24.5 34 38.5c9.33301 8.66699 20.666 17.334 33.999 26.001c-36 1.33301 -67.667 8.33301 -95 21c-29.333 14.667 -53.333 34.5 -72 59.5
s-32.5 54 -41.5 87s-13.5 67.833 -13.5 104.5c0 34 4.5 67.333 13.5 100s22.833 61.834 41.5 87.501s42.834 46.334 72.501 62.001c29.667 15.6699 64.834 23.5029 105.501 23.5c41.333 0 76.666 -8.33301 105.999 -25c29.334 -16.667 53.167 -38.5 71.5 -65.5
c18.334 -27 31.501 -58 39.501 -93s11.333 -70.5 10 -106.5h-397c0 -22.667 3.16699 -46.167 9.5 -70.5s16.5 -46.166 30.5 -65.499s31.667 -35.333 53 -48s47 -19 77 -19c46 0 82 12 108 36s44 56 54 96h63c-13.333 -58.667 -38 -104 -74 -136
c-28.667 -25.333 -67 -40.666 -115 -45.999c-10 -8.66699 -19 -17 -27 -25c-11.333 -12 -20.333 -23 -27 -33s-11.167 -19.333 -13.5 -28c-2.33496 -8.66699 -3.50195 -17.334 -3.5 -26.001c0 -16 4.5 -27.833 13.5 -35.5s19.167 -11.5 30.5 -11.5
c12.667 0 23.667 4.5 33 13.5c9.33398 9 16.667 18.167 22 27.5l29 -13c-14.667 -24.667 -29.834 -42 -45.5 -52c-15.667 -10 -32.167 -15 -49.5 -15zM430.999 293.996c-0.667969 24 -4.83496 46.999 -12.5 68.999c-7.66699 22 -18.5 41.5 -32.5 58.5s-31 30.667 -51 41
c-20 10.335 -42.667 15.502 -68 15.5c-26 0 -49 -5.16699 -69 -15.5s-37 -24 -51 -41s-25.167 -36.667 -33.5 -59s-13.833 -45.166 -16.5 -68.499h334z" />
    <glyph glyph-name="Ecaron" unicode="&#x11a;" horiz-adv-x="593" 
d="M72 714v-714h498v58h-430v282h398v58h-398v258h425v58h-493zM187 920l113 -141h69l114 141h-58l-88 -102l-86 102h-64z" />
    <glyph glyph-name="ecaron" unicode="&#x11b;" 
d="M431 294h-334.002c2.66699 23.333 8.16699 46.166 16.5 68.499c8.33301 22.334 19.5 42.001 33.5 59.001s31 30.667 51 41c20 10.335 43 15.502 69 15.5c25.334 0 48.001 -5.16699 68.001 -15.5s37 -24 51 -41s24.833 -36.5 32.5 -58.5s11.834 -45 12.501 -69z
M96.998 241l396.998 0.00292969c1.33105 36 -2.00195 71.5 -10 106.5c-8 35 -21.167 66 -39.5 93s-42.166 48.833 -71.499 65.5c-29.333 16.6699 -64.666 25.0029 -105.999 25c-40.667 0 -75.834 -7.83301 -105.501 -23.5c-29.667 -15.668 -53.834 -36.335 -72.501 -62.001
c-18.667 -25.667 -32.5 -54.834 -41.5 -87.501s-13.5 -66 -13.5 -100c0 -36.667 4.5 -71.5 13.5 -104.5s22.833 -62 41.5 -87s42.834 -44.667 72.501 -59s64.834 -21.5 105.501 -21.5c65.333 0 115.833 16 151.5 48s60.167 77.333 73.5 136h-63c-10 -40 -28 -72 -54 -96
s-62 -36 -108 -36c-30 0 -55.667 6.33301 -77 19s-39 28.667 -53 48s-24.167 41.166 -30.5 65.499s-9.5 47.833 -9.5 70.5zM116.996 741.003l113 -141h69l114 141h-58l-88 -102l-86 102h-64z" />
    <glyph glyph-name="Gcircumflex" unicode="&#x11c;" horiz-adv-x="741" 
d="M682 0l0.000976562 363.001h-303v-58h243c0.666992 -38 -4.33301 -73 -15 -105s-26.667 -59.667 -48 -83c-21.334 -23.333 -47.501 -41.5 -78.5 -54.5c-31 -13 -66.167 -19.5 -105.5 -19.5c-47.333 0 -88 9 -122 27s-61.833 41.833 -83.5 71.5
s-37.667 63.334 -48 101.001s-15.5 75.834 -15.5 114.501c0 39.334 5.16699 77.667 15.5 115c10.333 37.334 26.333 70.834 48 100.5c21.667 29.667 49.5 53.5 83.5 71.499c34 18 74.667 27 122 27c34 0 64.667 -5.5 92 -16.5c27.334 -11.001 50.834 -25.168 70.5 -42.5
c19.668 -17.334 35.335 -36.501 47 -57.5c11.6689 -21 18.502 -41.833 20.5 -62.5h68c-6.66699 39.333 -19 73.666 -37 102.999s-40 54 -66 74c-26.001 20 -55.668 35 -89.001 45s-68.666 15 -105.999 15c-56 -0.00292969 -105.167 -10.1699 -147.5 -30.5
c-42.333 -20.334 -77.5 -47.667 -105.5 -82s-49 -73.833 -63 -118.5s-21 -91.667 -21 -141s7 -96.333 21 -141s35 -84 63 -118s63.167 -61.167 105.5 -81.5s91.5 -30.5 147.5 -30.5c26 0 51.167 2.66699 75.5 8c24.334 5.33301 47.167 13.833 68.5 25.5
s40.833 26.667 58.5 45c17.668 18.333 32.501 40.166 44.499 65.499h2l9 -130h49zM443.001 779.001l-86 102l-88 -102h-57l113 141h69l114 -141h-65z" />
    <glyph glyph-name="gcircumflex" unicode="&#x11d;" horiz-adv-x="556" 
d="M496 42l0.00195312 474.001h-63v-89h-2c-6 14 -14.5 27.333 -25.5 40s-23.5 23.834 -37.5 33.501s-29.5 17.167 -46.5 22.5s-35.167 8 -54.5 8c-37.333 0 -70.5 -6.83301 -99.5 -20.5s-53.333 -32.334 -73 -56c-19.667 -23.667 -34.667 -51.334 -45 -83
c-10.333 -31.667 -15.5 -65.167 -15.5 -100.5c0 -36.667 4.33301 -71.167 13 -103.5s22.5 -60.5 41.5 -84.5s43.167 -42.833 72.5 -56.5s64.666 -20.5 105.999 -20.5c38 0 71.167 9.66699 99.5 29s49.833 45 64.5 77h2v-70c0 -62.667 -13 -110.667 -39 -144
s-68.333 -50 -127 -50c-17.333 -0.000976562 -34.333 1.83203 -51 5.5c-16.667 3.66699 -31.834 9.5 -45.501 17.5s-25.334 18.5 -35.001 31.5s-16.167 29.167 -19.5 48.5h-63c2 -27.333 9.5 -50.833 22.5 -70.5s29.333 -35.834 49 -48.501s41.834 -22 66.501 -28
s50 -9 76 -9c42 0 77.5 5.66699 106.5 17s52.5 27.666 70.5 48.999s31.167 47.333 39.5 78c8.33496 30.667 12.502 65 12.5 103zM267.002 59.001c-29.333 0 -54.6689 5.83105 -76.002 17.498s-39 27 -53 46s-24.333 40.833 -31 65.5s-10 50 -10 76
c0 26.667 3.16699 52.834 9.5 78.501s16.5 48.5 30.5 68.5s31.667 36.167 53 48.5c21.333 12.334 47 18.501 77 18.5s55.5 -6.33398 76.5 -19c21 -12.667 38.167 -29.334 51.5 -50c13.335 -20.667 23.002 -43.667 29.001 -69c6 -25.333 9 -50.666 9 -75.999
c0 -26 -3.5 -51.333 -10.5 -76s-17.5 -46.5 -31.5 -65.5s-31.333 -34.333 -51.999 -46c-20.667 -11.667 -44.667 -17.5 -72 -17.5zM347.999 584.999l-86 102l-88 -102h-57l113 141h69l114 -141h-65z" />
    <glyph glyph-name="Gbreve" unicode="&#x11e;" horiz-adv-x="741" 
d="M682 0l0.000976562 363.001h-303v-58h243c0.666992 -38 -4.33301 -73 -15 -105s-26.667 -59.667 -48 -83c-21.334 -23.333 -47.501 -41.5 -78.5 -54.5c-31 -13 -66.167 -19.5 -105.5 -19.5c-47.333 0 -88 9 -122 27s-61.833 41.833 -83.5 71.5
s-37.667 63.334 -48 101.001s-15.5 75.834 -15.5 114.501c0 39.334 5.16699 77.667 15.5 115c10.333 37.334 26.333 70.834 48 100.5c21.667 29.667 49.5 53.5 83.5 71.499c34 18 74.667 27 122 27c34 0 64.667 -5.5 92 -16.5c27.334 -11.001 50.834 -25.168 70.5 -42.5
c19.668 -17.334 35.335 -36.501 47 -57.5c11.6689 -21 18.502 -41.833 20.5 -62.5h68c-6.66699 39.333 -19 73.666 -37 102.999s-40 54 -66 74c-26.001 20 -55.668 35 -89.001 45s-68.666 15 -105.999 15c-56 -0.00292969 -105.167 -10.1699 -147.5 -30.5
c-42.333 -20.334 -77.5 -47.667 -105.5 -82s-49 -73.833 -63 -118.5s-21 -91.667 -21 -141s7 -96.333 21 -141s35 -84 63 -118s63.167 -61.167 105.5 -81.5s91.5 -30.5 147.5 -30.5c26 0 51.167 2.66699 75.5 8c24.334 5.33301 47.167 13.833 68.5 25.5
s40.833 26.667 58.5 45c17.668 18.333 32.501 40.166 44.499 65.499h2l9 -130h49zM256.001 906.001c0.666992 -13.335 3.99805 -25.165 9.99805 -35.4971c6.00098 -10.3369 13.668 -19.0039 23.001 -26.001c9.33398 -7.00684 20.001 -12.1738 32.001 -15.501
c12 -3.3457 24.333 -5.0127 37 -5c25.333 0 48.333 7.16699 69 21.5s33 34.5 37 60.5h39c-5.33301 -40.001 -20.833 -71.168 -46.5 -93.5c-25.667 -22.335 -58.5 -33.502 -98.5 -33.501c-40.667 0 -73.5 11 -98.5 33c-25 22.001 -39.167 53.334 -42.5 94h39v0z" />
    <glyph glyph-name="gbreve" unicode="&#x11f;" horiz-adv-x="556" 
d="M496 42l0.00195312 474.001h-63v-89h-2c-6 14 -14.5 27.333 -25.5 40s-23.5 23.834 -37.5 33.501s-29.5 17.167 -46.5 22.5s-35.167 8 -54.5 8c-37.333 0 -70.5 -6.83301 -99.5 -20.5s-53.333 -32.334 -73 -56c-19.667 -23.667 -34.667 -51.334 -45 -83
c-10.333 -31.667 -15.5 -65.167 -15.5 -100.5c0 -36.667 4.33301 -71.167 13 -103.5s22.5 -60.5 41.5 -84.5s43.167 -42.833 72.5 -56.5s64.666 -20.5 105.999 -20.5c38 0 71.167 9.66699 99.5 29s49.833 45 64.5 77h2v-70c0 -62.667 -13 -110.667 -39 -144
s-68.333 -50 -127 -50c-17.333 -0.000976562 -34.333 1.83203 -51 5.5c-16.667 3.66699 -31.834 9.5 -45.501 17.5s-25.334 18.5 -35.001 31.5s-16.167 29.167 -19.5 48.5h-63c2 -27.333 9.5 -50.833 22.5 -70.5s29.333 -35.834 49 -48.501s41.834 -22 66.501 -28
s50 -9 76 -9c42 0 77.5 5.66699 106.5 17s52.5 27.666 70.5 48.999s31.167 47.333 39.5 78c8.33496 30.667 12.502 65 12.5 103zM267.002 59.001c-29.333 0 -54.6689 5.83105 -76.002 17.498s-39 27 -53 46s-24.333 40.833 -31 65.5s-10 50 -10 76
c0 26.667 3.16699 52.834 9.5 78.501s16.5 48.5 30.5 68.5s31.667 36.167 53 48.5c21.333 12.334 47 18.501 77 18.5s55.5 -6.33398 76.5 -19c21 -12.667 38.167 -29.334 51.5 -50c13.335 -20.667 23.002 -43.667 29.001 -69c6 -25.333 9 -50.666 9 -75.999
c0 -26 -3.5 -51.333 -10.5 -76s-17.5 -46.5 -31.5 -65.5s-31.333 -34.333 -51.999 -46c-20.667 -11.667 -44.667 -17.5 -72 -17.5zM160.999 711.999c0.666992 -13.335 4 -25.167 10 -35.499c6 -10.3359 13.667 -19.0029 23 -26c9.33301 -7.00684 20 -12.1738 32 -15.5
c12 -3.34277 24.333 -5.00977 37 -5c25.333 0 48.333 7.16699 69 21.5s33 34.5 37 60.5h39c-5.33301 -40.001 -20.833 -71.168 -46.5 -93.5c-25.667 -22.335 -58.5 -33.502 -98.5 -33.501c-40.667 0 -73.5 11 -98.5 33c-25 22.001 -39.167 53.334 -42.5 94h39v0z" />
    <glyph glyph-name="Gdotaccent" unicode="&#x120;" horiz-adv-x="741" 
d="M682 0l0.000976562 363.001h-303v-58h243c0.666992 -38 -4.33301 -73 -15 -105s-26.667 -59.667 -48 -83c-21.334 -23.333 -47.501 -41.5 -78.5 -54.5c-31 -13 -66.167 -19.5 -105.5 -19.5c-47.333 0 -88 9 -122 27s-61.833 41.833 -83.5 71.5
s-37.667 63.334 -48 101.001s-15.5 75.834 -15.5 114.501c0 39.334 5.16699 77.667 15.5 115c10.333 37.334 26.333 70.834 48 100.5c21.667 29.667 49.5 53.5 83.5 71.499c34 18 74.667 27 122 27c34 0 64.667 -5.5 92 -16.5c27.334 -11.001 50.834 -25.168 70.5 -42.5
c19.668 -17.334 35.335 -36.501 47 -57.5c11.6689 -21 18.502 -41.833 20.5 -62.5h68c-6.66699 39.333 -19 73.666 -37 102.999s-40 54 -66 74c-26.001 20 -55.668 35 -89.001 45s-68.666 15 -105.999 15c-56 -0.00292969 -105.167 -10.1699 -147.5 -30.5
c-42.333 -20.334 -77.5 -47.667 -105.5 -82s-49 -73.833 -63 -118.5s-21 -91.667 -21 -141s7 -96.333 21 -141s35 -84 63 -118s63.167 -61.167 105.5 -81.5s91.5 -30.5 147.5 -30.5c26 0 51.167 2.66699 75.5 8c24.334 5.33301 47.167 13.833 68.5 25.5
s40.833 26.667 58.5 45c17.668 18.333 32.501 40.166 44.499 65.499h2l9 -130h49zM326.001 880.001h68v-101h-68v101z" />
    <glyph glyph-name="gdotaccent" unicode="&#x121;" horiz-adv-x="556" 
d="M496 42l0.00195312 474.001h-63v-89h-2c-6 14 -14.5 27.333 -25.5 40s-23.5 23.834 -37.5 33.501s-29.5 17.167 -46.5 22.5s-35.167 8 -54.5 8c-37.333 0 -70.5 -6.83301 -99.5 -20.5s-53.333 -32.334 -73 -56c-19.667 -23.667 -34.667 -51.334 -45 -83
c-10.333 -31.667 -15.5 -65.167 -15.5 -100.5c0 -36.667 4.33301 -71.167 13 -103.5s22.5 -60.5 41.5 -84.5s43.167 -42.833 72.5 -56.5s64.666 -20.5 105.999 -20.5c38 0 71.167 9.66699 99.5 29s49.833 45 64.5 77h2v-70c0 -62.667 -13 -110.667 -39 -144
s-68.333 -50 -127 -50c-17.333 -0.000976562 -34.333 1.83203 -51 5.5c-16.667 3.66699 -31.834 9.5 -45.501 17.5s-25.334 18.5 -35.001 31.5s-16.167 29.167 -19.5 48.5h-63c2 -27.333 9.5 -50.833 22.5 -70.5s29.333 -35.834 49 -48.501s41.834 -22 66.501 -28
s50 -9 76 -9c42 0 77.5 5.66699 106.5 17s52.5 27.666 70.5 48.999s31.167 47.333 39.5 78c8.33496 30.667 12.502 65 12.5 103zM267.002 59.001c-29.333 0 -54.6689 5.83105 -76.002 17.498s-39 27 -53 46s-24.333 40.833 -31 65.5s-10 50 -10 76
c0 26.667 3.16699 52.834 9.5 78.501s16.5 48.5 30.5 68.5s31.667 36.167 53 48.5c21.333 12.334 47 18.501 77 18.5s55.5 -6.33398 76.5 -19c21 -12.667 38.167 -29.334 51.5 -50c13.335 -20.667 23.002 -43.667 29.001 -69c6 -25.333 9 -50.666 9 -75.999
c0 -26 -3.5 -51.333 -10.5 -76s-17.5 -46.5 -31.5 -65.5s-31.333 -34.333 -51.999 -46c-20.667 -11.667 -44.667 -17.5 -72 -17.5zM230.999 685.999h68v-101h-68v101z" />
    <glyph glyph-name="Gcommaaccent" unicode="&#x122;" horiz-adv-x="741" 
d="M633 0l-9 130.002h-2c-12 -25.333 -26.833 -47.166 -44.5 -65.499s-37.167 -33.333 -58.5 -45s-44.166 -20.167 -68.499 -25.5s-49.5 -8 -75.5 -8c-56 0 -105.167 10.167 -147.5 30.5s-77.5 47.5 -105.5 81.5s-49 73.333 -63 118s-21 91.667 -21 141s7 96.333 21 141
s35 84.167 63 118.5s63.167 61.666 105.5 81.999s91.5 30.5 147.5 30.5c37.334 0 72.667 -5 106 -15s63 -25 89 -45c26 -20.001 48 -44.668 66 -74.001c18.001 -29.334 30.334 -63.667 36.999 -103h-68c-2 20.668 -8.83301 41.501 -20.5 62.5
c-11.667 21 -27.334 40.167 -47.001 57.5s-43.167 31.5 -70.5 42.5s-58 16.5 -92 16.5c-47.333 0 -88 -9 -122 -27s-61.833 -41.833 -83.5 -71.5s-37.667 -63.167 -48 -100.5s-15.5 -75.666 -15.5 -114.999c0 -38.667 5.16699 -76.834 15.5 -114.501
s26.333 -71.334 48 -101.001s49.5 -53.5 83.5 -71.5s74.667 -27 122 -27c39.334 0 74.501 6.5 105.501 19.5s57.167 31.167 78.5 54.5s37.333 51 48 83s15.667 67 15 105h-243v58h303v-363h-49zM413 -162.998c-0.00488281 -14.667 -1.83789 -29.167 -5.5 -43.5
c-3.66699 -14.333 -9.16699 -27.666 -16.5 -39.999s-16.5 -23.166 -27.5 -32.499s-24.167 -16 -39.5 -20v43c8.66699 2.66602 16 7.49902 22 14.499s11 15.167 15 24.5s6.83301 18.833 8.5 28.5c1.66699 9.66602 2.16699 18.499 1.5 26.499h-42v106h84v-107z" />
    <glyph glyph-name="gcommaaccent" unicode="&#x123;" horiz-adv-x="556" 
d="M496 42c0 -38 -4.16895 -72.3369 -12.502 -103.004s-21.5 -56.667 -39.5 -78s-41.5 -37.666 -70.5 -48.999s-64.5 -17 -106.5 -17c-26 0 -51.333 3 -76 9s-46.834 15.333 -66.501 28s-36 28.834 -49 48.501s-20.5 43.167 -22.5 70.5h63
c3.33301 -19.333 9.83301 -35.5 19.5 -48.5s21.334 -23.5 35.001 -31.5s28.834 -13.833 45.5 -17.5c16.667 -3.66699 33.667 -5.5 51 -5.5c58.667 0 101 16.667 127 50s39 81.333 39 144v70h-2c-14.667 -32 -36.167 -57.667 -64.5 -77s-61.5 -29 -99.5 -29
c-41.333 0 -76.666 6.83301 -105.999 20.5s-53.5 32.5 -72.5 56.5s-32.833 52.167 -41.5 84.5s-13 66.833 -13 103.5c0 35.333 5.16699 68.833 15.5 100.5s25.333 59.334 45 83.001s44 42.334 73 56.001c29 13.6689 62.167 20.502 99.5 20.5
c19.334 -0.00390625 37.501 -2.6709 54.501 -8c17 -5.33496 32.5 -12.835 46.5 -22.5c14 -9.66699 26.5 -20.834 37.5 -33.5c11 -12.667 19.5 -26 25.5 -40h2v89h63v-474zM266.998 58.9961c27.333 0 51.334 5.83301 72.001 17.5s38 27 52 46s24.5 40.833 31.5 65.5
s10.5 50 10.5 76c0 25.333 -3 50.666 -9 75.999s-15.667 48.333 -29 69s-30.5 37.334 -51.5 50.001s-46.5 19 -76.5 19s-55.667 -6.16699 -77 -18.5s-39 -28.5 -53 -48.5s-24.167 -42.833 -30.5 -68.499c-6.33301 -25.667 -9.5 -51.834 -9.5 -78.501
c0 -26 3.33301 -51.333 10 -76s17 -46.5 31 -65.5s31.667 -34.333 53 -46s46.666 -17.5 75.999 -17.5zM224.999 747.996c0.000976562 14.667 1.83398 29.1689 5.5 43.502c3.66699 14.333 9.16699 27.666 16.5 39.999c7.33398 12.333 16.667 23.166 28 32.499
s24.333 16 39 20v-43c-8.66797 -3.33984 -16.001 -8.50684 -22 -15.5c-6 -7 -11 -15 -15 -24c-4.00098 -9 -6.83398 -18.333 -8.5 -28c-1.66699 -9.66699 -2.16699 -18.5 -1.5 -26.5h42v-106h-84v107z" />
    <glyph glyph-name="Hcircumflex" unicode="&#x124;" horiz-adv-x="704" 
d="M72 714v-714h68v346h424v-346h68v714h-68v-310h-424v310h-68zM435 764l-86 102l-88 -102h-57l113 141h69l114 -141h-65z" />
    <glyph glyph-name="hcircumflex" unicode="&#x125;" horiz-adv-x="537" 
d="M59 714l-0.00292969 -714.002h63v301c0.666992 25.333 4.83398 48.833 12.501 70.5s18.334 40.334 32.001 56.001s30.334 28 50.001 37s42.167 13.5 67.5 13.5c25.334 0 46.501 -4 63.501 -12s30.5 -19 40.5 -33s17 -30.5 21 -49.5s6 -39.5 6 -61.5v-322h63v332
c0 30.667 -3 58.334 -9 83.001c-6.00098 24.667 -16.334 45.5 -31 62.5c-14.667 17 -34.167 30.167 -58.5 39.5s-54.5 14 -90.5 14c-36.667 0 -70.334 -9.5 -101.001 -28.5s-52 -44.167 -64 -75.5h-2v287h-63zM350.997 763.998l-86 102l-88 -102h-57l113 141h69l114 -141
h-65z" />
    <glyph glyph-name="Hbar" unicode="&#x126;" horiz-adv-x="704" 
d="M72 571v143h68v-143h424v143h68v-143h104v-53h-104v-518h-68v346h-424v-346h-68v518h-94v53h94zM564 404v114h-424v-114h424z" />
    <glyph glyph-name="hbar" unicode="&#x127;" horiz-adv-x="537" 
d="M59 644l0.00195312 69.999h63v-70h93v-53h-93v-164h2c12 31.334 33.333 56.501 64 75.501s64.334 28.5 101.001 28.5c36 -0.00585938 66.167 -4.67285 90.5 -14c24.333 -9.33301 43.833 -22.5 58.5 -39.5c14.667 -17.001 25 -37.834 31 -62.5
c6 -24.667 9 -52.334 9 -83.001v-332h-63v322c0 22 -2 42.5 -6 61.5s-11 35.5 -21 49.5s-23.5 25 -40.5 33s-38.167 12 -63.5 12s-47.833 -4.5 -67.5 -13.5s-36.334 -21.333 -50.001 -36.999c-13.667 -15.667 -24.334 -34.334 -32.001 -56
c-7.66699 -21.667 -11.834 -45.167 -12.501 -70.5v-301h-63v591h-102v53h102z" />
    <glyph glyph-name="Itilde" unicode="&#x128;" horiz-adv-x="222" 
d="M77 714v-714h68v714h-68zM267 864c-2 -11.3369 -5.16504 -22.665 -9.49805 -33.9951c-4.33398 -11.3379 -10.001 -21.5049 -17.001 -30.5c-7 -9 -15.5 -16.333 -25.5 -22s-21.667 -8.5 -35 -8.5c-13.333 0.0117188 -26.333 2.34473 -39 7
c-12.667 4.66992 -24.667 10.0029 -36 16c-11.333 6.00293 -22 11.3359 -32 16c-10 4.67871 -19.333 7.01172 -28 6.99902c-15.333 0 -27.833 -4.33301 -37.5 -13s-14.5 -21.334 -14.5 -38.001h-39c1.33301 12 4.16602 23.667 8.49902 35s10.333 21.5 18 30.5
c7.66699 9.00293 16.667 16.3359 27 21.999c10.333 5.67285 21.833 8.50586 34.5 8.49902c14 0 27.333 -2.33301 40 -7s24.5 -9.66699 35.5 -15s21.333 -10.333 31 -15s19.167 -7 28.5 -7c15.333 0 26.833 4.66699 34.5 14s13.5 20.666 17.5 33.999h38v0z" />
    <glyph glyph-name="itilde" unicode="&#x129;" horiz-adv-x="185" 
d="M61 0h63v516h-63v-516zM248 670c-2 -11.335 -5.16504 -22.6611 -9.49805 -33.9932c-4.33398 -11.3359 -10.001 -21.5029 -17.001 -30.501c-7 -9 -15.5 -16.333 -25.5 -22s-21.667 -8.5 -35 -8.5c-13.333 0.0126953 -26.333 2.3457 -39 6.99902
c-12.667 4.66895 -24.667 10.002 -36 16c-11.333 6.00195 -22 11.335 -32 15.999c-10 4.68066 -19.333 7.01367 -28 6.99902c-15.333 0 -27.833 -4.33301 -37.5 -13s-14.5 -21.334 -14.5 -38.001h-39c1.33301 12 4.16602 23.667 8.49902 35s10.333 21.5 18 30.5
c7.66699 9.00195 16.667 16.335 27 21.999c10.333 5.67188 21.833 8.50488 34.5 8.5c14 0 27.333 -2.33301 40 -7s24.5 -9.66699 35.5 -15s21.333 -10.333 31 -15s19.167 -7 28.5 -7c15.333 0 26.833 4.66699 34.5 14s13.5 20.666 17.5 33.999h38v0z" />
    <glyph glyph-name="Imacron" unicode="&#x12a;" horiz-adv-x="222" 
d="M77 714v-714h68v714h-68zM-53 809h328v-45h-328v45z" />
    <glyph glyph-name="imacron" unicode="&#x12b;" horiz-adv-x="185" 
d="M61 0h63v516h-63v-516zM-72 615h328v-45h-328v45z" />
    <glyph glyph-name="Ibreve" unicode="&#x12c;" horiz-adv-x="222" 
d="M77 714v-714h68v714h-68zM7 891l-39 0.00195312c3.33301 -40.667 17.5 -72 42.5 -94s57.833 -33 98.5 -33c40 0 72.833 11.167 98.5 33.5s41.167 53.5 46.5 93.5h-39c-4 -26.002 -16.333 -46.1689 -37 -60.501c-20.667 -14.3379 -43.667 -21.5049 -69 -21.5
c-12.667 0 -25 1.66699 -37 5s-22.667 8.5 -32 15.5s-17 15.667 -23 26s-9.33301 22.166 -10 35.499z" />
    <glyph glyph-name="ibreve" unicode="&#x12d;" horiz-adv-x="185" 
d="M61 0h63v516h-63v-516zM-11 697l-39 0.00195312c3.33301 -40.667 17.5 -72 42.5 -94s57.833 -33 98.5 -33c40 0 72.833 11.167 98.5 33.5s41.167 53.5 46.5 93.5h-39c-4 -26.001 -16.333 -46.168 -37 -60.5c-20.667 -14.3359 -43.667 -21.5029 -69 -21.501
c-12.667 0 -25 1.66699 -37 5s-22.667 8.5 -32 15.5s-17 15.667 -23 26s-9.33301 22.166 -10 35.499z" />
    <glyph glyph-name="Iogonek" unicode="&#x12e;" horiz-adv-x="222" 
d="M77 714v-714h68v714h-68zM167 2c-18 -14 -32.8301 -27.001 -44.4971 -39.001s-20.834 -23 -27.501 -33s-11.167 -19.333 -13.5 -28s-3.5 -17.334 -3.5 -26.001c0 -16 4.5 -27.833 13.5 -35.5s19.167 -11.5 30.5 -11.5c12.667 0 23.667 4.5 33 13.5
s16.666 18.167 21.999 27.5l29 -13c-14.667 -24.667 -29.834 -42 -45.501 -52s-32.167 -15 -49.5 -15c-36 0 -61 7.66699 -75 23s-21 35 -21 59c0 4.66699 1.16699 11.167 3.5 19.5s7.5 18.333 15.5 30s19.5 24.334 34.5 38.001s35.167 27.834 60.5 42.501h38v0z" />
    <glyph glyph-name="iogonek" unicode="&#x12f;" horiz-adv-x="185" 
d="M61 714v-101h63v101h-63zM61 516v-516h63v516h-63zM148 2c-18 -14 -32.8301 -27.001 -44.4971 -39.001s-20.834 -23 -27.501 -33s-11.167 -19.333 -13.5 -28s-3.5 -17.334 -3.5 -26.001c0 -16 4.5 -27.833 13.5 -35.5s19.167 -11.5 30.5 -11.5
c12.667 0 23.667 4.5 33 13.5s16.666 18.167 21.999 27.5l29 -13c-14.667 -24.667 -29.834 -42 -45.501 -52s-32.167 -15 -49.5 -15c-36 0 -61 7.66699 -75 23s-21 35 -21 59c0 4.66699 1.16699 11.167 3.5 19.5s7.5 18.333 15.5 30s19.5 24.334 34.5 38.001
s35.167 27.834 60.5 42.501h38v0z" />
    <glyph glyph-name="Idot" unicode="&#x130;" horiz-adv-x="222" 
d="M77 714v-714h68v714h-68zM77 764h68v101h-68v-101z" />
    <glyph glyph-name="dotlessi" unicode="&#x131;" horiz-adv-x="185" 
d="M61 0h63v516h-63v-516z" />
    <glyph glyph-name="IJ" unicode="&#x132;" horiz-adv-x="722" 
d="M77 714v-714h68v714h-68zM582 714l0.000976562 -486.001c0 -32.667 -2 -60.667 -6 -84s-11 -42.5 -21 -57.5c-10.001 -15 -23.668 -26 -41 -33c-17.333 -7 -39.333 -10.5 -66 -10.5c-35.333 0 -62.166 6.83301 -80.499 20.5s-31.5 30.167 -39.5 49.5
s-12.667 39.666 -14 60.999s-2.33301 39.666 -3 54.999h-68c0 -31.333 2.66699 -61.666 8 -90.999s15.333 -55.166 30 -77.499s35 -40.333 61 -54s59.333 -20.5 100 -20.5c38.667 0 71.167 4.33301 97.5 13s47.666 21.667 63.999 39s28.166 39.333 35.499 66
s11 58.334 11 95.001v515h-68z" />
    <glyph glyph-name="ij" unicode="&#x133;" horiz-adv-x="370" 
d="M61 714v-101h63v101h-63zM61 516v-516h63v516h-63zM246 714v-101h63v101h-63zM246 516l0.000976562 -577.999c0 -21.333 -3.33301 -39.166 -10 -53.499s-22.334 -21.5 -47.001 -21.5c-4.66699 -0.666992 -10 -0.833984 -16 -0.500977s-11.667 0.833008 -17 1.5v-52
c7.33301 0 14.5 -0.333008 21.5 -1s14.167 -1 21.5 -1c22 0 40.167 3.83301 54.5 11.5c14.334 7.66699 25.667 18 34 31c8.33398 13 14.001 28.167 17 45.5c3 17.333 4.5 35.666 4.5 54.999v563h-63z" />
    <glyph glyph-name="Jcircumflex" unicode="&#x134;" horiz-adv-x="500" 
d="M360 714l-0.000976562 -486.001c0 -32.667 -2 -60.667 -6 -84s-11 -42.5 -21 -57.5s-23.667 -26 -41 -33s-39.333 -10.5 -66 -10.5c-35.333 0 -62.166 6.83301 -80.499 20.5s-31.5 30.167 -39.5 49.5s-12.667 39.666 -14 60.999s-2.33301 39.666 -3 54.999h-68
c0 -31.333 2.66699 -61.666 8 -90.999s15.333 -55.166 30 -77.499s35 -40.333 61 -54s59.333 -20.5 100 -20.5c38.667 0 71.167 4.33301 97.5 13c26.334 8.66699 47.667 21.667 64 39c16.334 17.333 28.167 39.333 35.5 66c7.33496 26.667 11.002 58.334 11 95.001v515h-68z
M551.999 752.999l-114 141h-69l-113 -141h57l88 102l86 -102h65z" />
    <glyph glyph-name="jcircumflex" unicode="&#x135;" horiz-adv-x="185" 
d="M61 516l0.00195312 -577.999c0 -21.333 -3.33301 -39.166 -10 -53.499s-22.334 -21.5 -47.001 -21.5c-4.66699 -0.666992 -10 -0.833984 -16 -0.500977s-11.667 0.833008 -17 1.5v-52c7.33301 0 14.5 -0.333008 21.5 -1s14.167 -1 21.5 -1c22 0 40.167 3.83301 54.5 11.5
s25.666 18 33.999 31s14 28.167 17 45.5s4.5 35.666 4.5 54.999v563h-63zM172.002 588.001l-86 102l-88 -102h-57l113 141h69l114 -141h-65z" />
    <glyph glyph-name="Kcommaaccent" unicode="&#x136;" horiz-adv-x="648" 
d="M140 714v-384l415 384h92l-319 -295l334 -419h-88l-297 372l-137 -127v-245h-68v714h68zM363 -163c-0.00292969 -14.667 -1.83594 -29.167 -5.5 -43.5c-3.66699 -14.333 -9.16699 -27.666 -16.5 -39.999s-16.5 -23.166 -27.5 -32.499s-24.167 -16 -39.5 -20v43
c8.66699 2.66602 16 7.49902 22 14.499s11 15.167 15 24.5s6.83301 18.833 8.5 28.5c1.66699 9.66602 2.16699 18.499 1.5 26.499h-42v106h84v-107z" />
    <glyph glyph-name="kcommaaccent" unicode="&#x137;" horiz-adv-x="500" 
d="M123 714v-448l286 250h84l-220 -191l235 -325h-79l-204 281l-102 -85v-196h-63v714h63zM313 -163c-0.00390625 -14.667 -1.83691 -29.167 -5.5 -43.5c-3.66699 -14.333 -9.16699 -27.666 -16.5 -39.999s-16.5 -23.166 -27.5 -32.499s-24.167 -16 -39.5 -20v43
c8.66699 2.66602 16 7.49902 22 14.499s11 15.167 15 24.5s6.83301 18.833 8.5 28.5c1.66699 9.66602 2.16699 18.499 1.5 26.499h-42v106h84v-107z" />
    <glyph glyph-name="kgreenlandic" unicode="&#x138;" horiz-adv-x="500" 
d="M123 516v-250l286 250h84l-220 -191l235 -325h-79l-204 281l-102 -85v-196h-63v516h63z" />
    <glyph glyph-name="Lacute" unicode="&#x139;" horiz-adv-x="537" 
d="M72 714v-714h468v58h-400v656h-68zM214 764l105 141h78l-132 -141h-51z" />
    <glyph glyph-name="lacute" unicode="&#x13a;" horiz-adv-x="185" 
d="M61 714v-714h63v714h-63zM0 764l105 141h78l-132 -141h-51z" />
    <glyph glyph-name="Lcommaaccent" unicode="&#x13b;" horiz-adv-x="537" 
d="M140 714v-656h400v-58h-468v714h68zM313 -163c-0.00390625 -14.667 -1.83691 -29.167 -5.5 -43.5c-3.66699 -14.333 -9.16699 -27.666 -16.5 -39.999s-16.5 -23.166 -27.5 -32.499s-24.167 -16 -39.5 -20v43c8.66699 2.66602 16 7.49902 22 14.499s11 15.167 15 24.5
s6.83301 18.833 8.5 28.5c1.66699 9.66602 2.16699 18.499 1.5 26.499h-42v106h84v-107z" />
    <glyph glyph-name="lcommaaccent" unicode="&#x13c;" horiz-adv-x="185" 
d="M124 714v-714h-63v714h63zM133 -163c0 -14.667 -1.83301 -29.167 -5.5 -43.5s-9.16699 -27.666 -16.5 -39.999s-16.5 -23.166 -27.5 -32.499s-24.167 -16 -39.5 -20v43c8.66699 2.66602 16 7.49902 22 14.499s11 15.167 15 24.5s6.83301 18.833 8.5 28.5
c1.66699 9.66602 2.16699 18.499 1.5 26.499h-42v106h84v-107z" />
    <glyph glyph-name="Lcaron" unicode="&#x13d;" horiz-adv-x="537" 
d="M72 714v-714h468v58h-400v656h-68zM222 905l86 -102l88 102h58l-114 -141h-69l-113 141h64z" />
    <glyph glyph-name="lcaron" unicode="&#x13e;" horiz-adv-x="280" 
d="M212 714h50v-280h-50v280zM124 714v-714h-63v714h63z" />
    <glyph glyph-name="Ldot" unicode="&#x13f;" horiz-adv-x="537" 
d="M140 714v-656h400v-58h-468v714h68zM327 406h84v-106h-84v106z" />
    <glyph glyph-name="ldot" unicode="&#x140;" horiz-adv-x="365" 
d="M124 714v-714h-63v714h63zM207 406h84v-106h-84v106z" />
    <glyph glyph-name="Lslash" unicode="&#x141;" horiz-adv-x="537" 
d="M72 714v-408l-81 -56v-56l81 57v-251h468v58h-400v240l243 167v56l-243 -168v361h-68z" />
    <glyph glyph-name="lslash" unicode="&#x142;" horiz-adv-x="185" 
d="M61 714v-319l-66 -55v-55l66 55v-340h63v392l67 55v55l-67 -55v267h-63z" />
    <glyph glyph-name="Nacute" unicode="&#x143;" horiz-adv-x="704" 
d="M147 714l416 -604h2v604h68v-714h-76l-416 604h-2v-604h-68v714h76zM310 771l105 141h78l-132 -141h-51z" />
    <glyph glyph-name="nacute" unicode="&#x144;" horiz-adv-x="537" 
d="M122 516l0.00195312 -89.001h2c12 31.334 33.333 56.501 64 75.501s64.334 28.5 101.001 28.5c36 -0.00585938 66.167 -4.67285 90.5 -14c24.333 -9.33301 43.833 -22.5 58.5 -39.5c14.667 -17.001 25 -37.834 31 -62.5c6 -24.667 9 -52.334 9 -83.001v-332h-63v322
c0 22 -2 42.5 -6 61.5s-11 35.5 -21 49.5s-23.5 25 -40.5 33s-38.167 12 -63.5 12s-47.833 -4.5 -67.5 -13.5s-36.334 -21.333 -50.001 -36.999c-13.667 -15.667 -24.334 -34.334 -32.001 -56c-7.66699 -21.667 -11.834 -45.167 -12.501 -70.5v-301h-63v516h63z
M207.002 587.999l105 141h78l-132 -141h-51z" />
    <glyph glyph-name="Ncommaaccent" unicode="&#x145;" horiz-adv-x="704" 
d="M147 714l416 -604h2v604h68v-714h-76l-416 604h-2v-604h-68v714h76zM393 -163c-0.00488281 -14.667 -1.83789 -29.167 -5.5 -43.5c-3.66699 -14.333 -9.16699 -27.666 -16.5 -39.999s-16.5 -23.166 -27.5 -32.499s-24.167 -16 -39.5 -20v43
c8.66699 2.66602 16 7.49902 22 14.499s11 15.167 15 24.5s6.83301 18.833 8.5 28.5c1.66699 9.66602 2.16699 18.499 1.5 26.499h-42v106h84v-107z" />
    <glyph glyph-name="ncommaaccent" unicode="&#x146;" horiz-adv-x="537" 
d="M122 516l0.00195312 -89.001h2c12 31.334 33.333 56.501 64 75.501s64.334 28.5 101.001 28.5c36 -0.00585938 66.167 -4.67285 90.5 -14c24.333 -9.33301 43.833 -22.5 58.5 -39.5c14.667 -17.001 25 -37.834 31 -62.5c6 -24.667 9 -52.334 9 -83.001v-332h-63v322
c0 22 -2 42.5 -6 61.5s-11 35.5 -21 49.5s-23.5 25 -40.5 33s-38.167 12 -63.5 12s-47.833 -4.5 -67.5 -13.5s-36.334 -21.333 -50.001 -36.999c-13.667 -15.667 -24.334 -34.334 -32.001 -56c-7.66699 -21.667 -11.834 -45.167 -12.501 -70.5v-301h-63v516h63z
M313.002 -163.001c-0.00390625 -14.667 -1.83691 -29.167 -5.5 -43.5c-3.66699 -14.333 -9.16699 -27.666 -16.5 -39.999s-16.5 -23.166 -27.5 -32.499s-24.167 -16 -39.5 -20v43c8.66699 2.66602 16 7.49902 22 14.499s11 15.167 15 24.5s6.83301 18.833 8.5 28.5
c1.66699 9.66602 2.16699 18.499 1.5 26.499h-42v106h84v-107z" />
    <glyph glyph-name="Ncaron" unicode="&#x147;" horiz-adv-x="704" 
d="M71 714v-714h68v604h2l416 -604h76v714h-68v-604h-2l-416 604h-76zM214 919l113 -141h69l114 141h-58l-88 -102l-86 102h-64z" />
    <glyph glyph-name="ncaron" unicode="&#x148;" horiz-adv-x="537" 
d="M59 516l-0.00292969 -516.002h63v301c0.666992 25.333 4.83398 48.833 12.501 70.5s18.334 40.334 32.001 56.001s30.334 28 50.001 37s42.167 13.5 67.5 13.5c25.334 0 46.501 -4 63.501 -12s30.5 -19 40.5 -33s17 -30.5 21 -49.5s6 -39.5 6 -61.5v-322h63v332
c0 30.667 -3 58.334 -9 83.001c-6.00098 24.667 -16.334 45.5 -31 62.5c-14.667 17 -34.167 30.167 -58.5 39.5s-54.5 14 -90.5 14c-36.667 0 -70.334 -9.5 -101.001 -28.5s-52 -44.167 -64 -75.5h-2v89h-63zM141.997 737.998l113 -141h69l114 141h-58l-88 -102l-86 102h-64
z" />
    <glyph glyph-name="napostrophe" unicode="&#x149;" horiz-adv-x="698" 
d="M170 720l-84 0.00195312v-106h42c0.666992 -8 0.166992 -16.833 -1.5 -26.5s-4.5 -19.167 -8.5 -28.5c-4 -9.33594 -9 -17.5029 -15 -24.5c-6 -7 -13.333 -11.833 -22 -14.5v-43c15.333 4.00098 28.5 10.668 39.5 20c11 9.33301 20.167 20.166 27.5 32.499
s12.833 25.666 16.5 39.999c3.66797 14.333 5.50098 28.833 5.5 43.5v107zM220 516.002l-0.00195312 -516.002h63v301c0.666992 25.333 4.83398 48.833 12.501 70.5s18.334 40.334 32.001 56.001s30.334 28 50.001 37s42.167 13.5 67.5 13.5c25.334 0 46.501 -4 63.5 -12
c17 -8 30.5 -19 40.5 -33s17 -30.5 21 -49.5s6 -39.5 6 -61.5v-322h63v332c0 30.667 -3 58.334 -9 83.001s-16.333 45.5 -31 62.5s-34.167 30.167 -58.5 39.5s-54.5 14 -90.5 14c-36.667 0 -70.334 -9.5 -101.001 -28.5s-52 -44.167 -64 -75.5h-2v89h-63z" />
    <glyph glyph-name="Eng" unicode="&#x14a;" horiz-adv-x="704" 
d="M147 714l418 -604.001v604h66v-714v-47c0 -19.333 -1.5 -37.666 -4.5 -54.999c-3.00195 -17.333 -8.66895 -32.5 -17 -45.5c-8.33398 -13 -19.667 -23.333 -33.999 -31c-14.334 -7.66699 -32.501 -11.5 -54.5 -11.5c-7.33398 -0.00292969 -14.501 0.330078 -21.501 1
c-7 0.664062 -14.167 0.99707 -21.5 1v52c5.33398 -0.666992 11.001 -1.16699 17 -1.5c6 -0.334961 11.333 -0.167969 16 0.500977c24.667 0 40.334 7.16699 47 21.5c6.6709 14.333 10.0039 32.166 10 53.499l-11 62l-418 604v-604h-68v714h76z" />
    <glyph glyph-name="eng" unicode="&#x14b;" horiz-adv-x="531" 
d="M122 516v-89.0029h2c12 31.334 33.333 56.501 64 75.501s64.334 28.5 101.001 28.5c36 -0.00585938 66.167 -4.67285 90.5 -14c24.333 -9.33301 43.833 -22.5 58.5 -39.5c14.667 -17.001 25 -37.834 31 -62.5c6 -24.667 9 -52.334 9 -83v-379
c0 -19.333 -1.5 -37.666 -4.5 -54.999s-8.66699 -32.5 -17 -45.5s-19.666 -23.333 -33.999 -31s-32.5 -11.5 -54.5 -11.5c-7.33301 -0.00292969 -14.5 0.330078 -21.5 1c-7 0.664062 -14.167 0.99707 -21.5 1v52c5.33398 -0.666992 11.001 -1.16699 17 -1.5
c6 -0.334961 11.333 -0.167969 16 0.500977c24.667 0 40.334 7.16699 47.001 21.5s10 32.166 10 53.499v384c0 22 -2 42.5 -6 61.5s-11 35.5 -21 49.5s-23.5 25 -40.5 33s-38.167 12 -63.5 12s-47.833 -4.5 -67.5 -13.5s-36.334 -21.333 -50.001 -36.999
c-13.667 -15.667 -24.334 -34.334 -32.001 -56c-7.66699 -21.667 -11.834 -45.167 -12.501 -70.5v-301h-63v516h63z" />
    <glyph glyph-name="Omacron" unicode="&#x14c;" horiz-adv-x="741" 
d="M102 357c0 39.334 5.16797 77.667 15.501 115c10.333 37.334 26.333 70.834 48 100.5c21.667 29.667 49.5 53.5 83.5 71.499c34 18 74.667 27 122 27s87.833 -9 121.5 -27s61.334 -41.833 83 -71.5c21.667 -29.667 37.667 -63.167 48 -100.5s15.5 -75.666 15.5 -114.999
c-0.00488281 -38.667 -5.17188 -76.834 -15.5 -114.501c-10.333 -37.667 -26.333 -71.334 -48 -101.001s-49.334 -53.5 -83.001 -71.5s-74.167 -27 -121.5 -27s-88 9 -122 27s-61.833 41.833 -83.5 71.5s-37.667 63.334 -48 101.001s-15.5 75.834 -15.5 114.501zM34.001 357
c0 -49.333 7 -96.332 21 -140.999s35 -84 63 -118s63.167 -61.167 105.5 -81.5s91.5 -30.5 147.5 -30.5s105 10.167 147 30.5s77 47.5 105 81.5s49 73.333 63 118s21 91.667 21 141s-7 96.333 -21 141s-35 84.167 -63 118.5s-63 61.666 -105 81.999s-91 30.5 -147 30.5
c-56 -0.00292969 -105.167 -10.1699 -147.5 -30.5c-42.333 -20.334 -77.5 -47.667 -105.5 -82s-49 -73.833 -63 -118.5s-21 -91.667 -21 -141zM206.001 824.001h328v-45h-328v45z" />
    <glyph glyph-name="omacron" unicode="&#x14d;" horiz-adv-x="556" 
d="M278 478c30 -0.000976562 56.333 -6.33496 79 -19.001c22.667 -12.667 41.5 -29.334 56.5 -50c15 -20.667 26.333 -44.167 34 -70.5s11.5 -53.166 11.5 -80.499c-0.00292969 -27.333 -3.83594 -54.166 -11.5 -80.499c-7.66699 -26.333 -19 -49.833 -34 -70.5
c-15.001 -20.667 -33.834 -37.334 -56.5 -50.001c-22.667 -12.667 -49 -19 -79 -19s-56.333 6.33301 -79 19s-41.5 29.334 -56.5 50.001s-26.333 44.167 -34 70.5s-11.5 53.166 -11.5 80.499s3.83301 54.166 11.5 80.499s19 49.833 34 70.5s33.833 37.334 56.5 50.001
s49 19 79 19zM278 530.999c-39.333 0 -74.168 -7.33496 -104.501 -22.002s-55.833 -34.334 -76.5 -59c-20.667 -24.667 -36.334 -53.5 -47.001 -86.5s-16 -68.167 -16 -105.5s5.33301 -72.5 16 -105.5s26.334 -61.833 47.001 -86.5s46.167 -44.167 76.5 -58.5
s65.166 -21.5 104.499 -21.5c39.334 0 74.167 7.16699 104.5 21.5s55.833 33.833 76.5 58.5s36.334 53.5 47.001 86.5c10.6689 33 16.002 68.167 16 105.5c0 37.334 -5.33301 72.501 -16 105.501s-26.334 61.833 -47 86.5c-20.667 24.667 -46.167 44.334 -76.5 59.001
c-30.333 14.6699 -65.166 22.0029 -104.499 22zM113.998 629.997h328v-45h-328v45z" />
    <glyph glyph-name="Obreve" unicode="&#x14e;" horiz-adv-x="741" 
d="M102 357c0 39.334 5.16797 77.667 15.501 115c10.333 37.334 26.333 70.834 48 100.5c21.667 29.667 49.5 53.5 83.5 71.499c34 18 74.667 27 122 27s87.833 -9 121.5 -27s61.334 -41.833 83 -71.5c21.667 -29.667 37.667 -63.167 48 -100.5s15.5 -75.666 15.5 -114.999
c-0.00488281 -38.667 -5.17188 -76.834 -15.5 -114.501c-10.333 -37.667 -26.333 -71.334 -48 -101.001s-49.334 -53.5 -83.001 -71.5s-74.167 -27 -121.5 -27s-88 9 -122 27s-61.833 41.833 -83.5 71.5s-37.667 63.334 -48 101.001s-15.5 75.834 -15.5 114.501zM34.001 357
c0 -49.333 7 -96.332 21 -140.999s35 -84 63 -118s63.167 -61.167 105.5 -81.5s91.5 -30.5 147.5 -30.5s105 10.167 147 30.5s77 47.5 105 81.5s49 73.333 63 118s21 91.667 21 141s-7 96.333 -21 141s-35 84.167 -63 118.5s-63 61.666 -105 81.999s-91 30.5 -147 30.5
c-56 -0.00292969 -105.167 -10.1699 -147.5 -30.5c-42.333 -20.334 -77.5 -47.667 -105.5 -82s-49 -73.833 -63 -118.5s-21 -91.667 -21 -141zM266.001 906.001c0.666992 -13.335 3.99902 -25.165 9.99902 -35.4971c6.00098 -10.3369 13.668 -19.0039 23 -26.001
c9.33398 -7.00684 20.001 -12.1738 32.001 -15.501c12 -3.3457 24.333 -5.0127 37 -5c25.333 0 48.333 7.16699 69 21.5s33 34.5 37 60.5h39c-5.33301 -40.001 -20.833 -71.168 -46.5 -93.5c-25.667 -22.335 -58.5 -33.502 -98.5 -33.501c-40.667 0 -73.5 11 -98.5 33
c-25 22.001 -39.167 53.334 -42.5 94h39v0z" />
    <glyph glyph-name="obreve" unicode="&#x14f;" horiz-adv-x="556" 
d="M278 478c30 -0.000976562 56.333 -6.33496 79 -19.001c22.667 -12.667 41.5 -29.334 56.5 -50c15 -20.667 26.333 -44.167 34 -70.5s11.5 -53.166 11.5 -80.499c-0.00292969 -27.333 -3.83594 -54.166 -11.5 -80.499c-7.66699 -26.333 -19 -49.833 -34 -70.5
c-15.001 -20.667 -33.834 -37.334 -56.5 -50.001c-22.667 -12.667 -49 -19 -79 -19s-56.333 6.33301 -79 19s-41.5 29.334 -56.5 50.001s-26.333 44.167 -34 70.5s-11.5 53.166 -11.5 80.499s3.83301 54.166 11.5 80.499s19 49.833 34 70.5s33.833 37.334 56.5 50.001
s49 19 79 19zM278 530.999c-39.333 0 -74.168 -7.33496 -104.501 -22.002s-55.833 -34.334 -76.5 -59c-20.667 -24.667 -36.334 -53.5 -47.001 -86.5s-16 -68.167 -16 -105.5s5.33301 -72.5 16 -105.5s26.334 -61.833 47.001 -86.5s46.167 -44.167 76.5 -58.5
s65.166 -21.5 104.499 -21.5c39.334 0 74.167 7.16699 104.5 21.5s55.833 33.833 76.5 58.5s36.334 53.5 47.001 86.5c10.6689 33 16.002 68.167 16 105.5c0 37.334 -5.33301 72.501 -16 105.501s-26.334 61.833 -47 86.5c-20.667 24.667 -46.167 44.334 -76.5 59.001
c-30.333 14.6699 -65.166 22.0029 -104.499 22zM173.998 711.997c0.666992 -13.335 4 -25.167 10 -35.499c6 -10.3359 13.667 -19.0029 23 -26c9.33301 -7.00684 20 -12.1738 32 -15.5c12 -3.34277 24.333 -5.00977 37 -5c25.333 0 48.333 7.16699 69 21.5s33 34.5 37 60.5
h39c-5.33301 -40.001 -20.833 -71.168 -46.5 -93.5c-25.667 -22.335 -58.5 -33.502 -98.5 -33.501c-40.667 0 -73.5 11 -98.5 33c-25 22.001 -39.167 53.334 -42.5 94h39v0z" />
    <glyph glyph-name="Ohungarumlaut" unicode="&#x150;" horiz-adv-x="741" 
d="M102 357c0 39.334 5.16797 77.667 15.501 115c10.333 37.334 26.333 70.834 48 100.5c21.667 29.667 49.5 53.5 83.5 71.499c34 18 74.667 27 122 27s87.833 -9 121.5 -27s61.334 -41.833 83 -71.5c21.667 -29.667 37.667 -63.167 48 -100.5s15.5 -75.666 15.5 -114.999
c-0.00488281 -38.667 -5.17188 -76.834 -15.5 -114.501c-10.333 -37.667 -26.333 -71.334 -48 -101.001s-49.334 -53.5 -83.001 -71.5s-74.167 -27 -121.5 -27s-88 9 -122 27s-61.833 41.833 -83.5 71.5s-37.667 63.334 -48 101.001s-15.5 75.834 -15.5 114.501zM34.001 357
c0 -49.333 7 -96.332 21 -140.999s35 -84 63 -118s63.167 -61.167 105.5 -81.5s91.5 -30.5 147.5 -30.5s105 10.167 147 30.5s77 47.5 105 81.5s49 73.333 63 118s21 91.667 21 141s-7 96.333 -21 141s-35 84.167 -63 118.5s-63 61.666 -105 81.999s-91 30.5 -147 30.5
c-56 -0.00292969 -105.167 -10.1699 -147.5 -30.5c-42.333 -20.334 -77.5 -47.667 -105.5 -82s-49 -73.833 -63 -118.5s-21 -91.667 -21 -141zM513.001 916.001h76l-126 -141h-51zM357.001 916.001h76l-126 -141h-50z" />
    <glyph glyph-name="ohungarumlaut" unicode="&#x151;" horiz-adv-x="556" 
d="M278 478c30 -0.000976562 56.333 -6.33496 79 -19.001c22.667 -12.667 41.5 -29.334 56.5 -50c15 -20.667 26.333 -44.167 34 -70.5s11.5 -53.166 11.5 -80.499c-0.00292969 -27.333 -3.83594 -54.166 -11.5 -80.499c-7.66699 -26.333 -19 -49.833 -34 -70.5
c-15.001 -20.667 -33.834 -37.334 -56.5 -50.001c-22.667 -12.667 -49 -19 -79 -19s-56.333 6.33301 -79 19s-41.5 29.334 -56.5 50.001s-26.333 44.167 -34 70.5s-11.5 53.166 -11.5 80.499s3.83301 54.166 11.5 80.499s19 49.833 34 70.5s33.833 37.334 56.5 50.001
s49 19 79 19zM278 530.999c-39.333 0 -74.168 -7.33496 -104.501 -22.002s-55.833 -34.334 -76.5 -59c-20.667 -24.667 -36.334 -53.5 -47.001 -86.5s-16 -68.167 -16 -105.5s5.33301 -72.5 16 -105.5s26.334 -61.833 47.001 -86.5s46.167 -44.167 76.5 -58.5
s65.166 -21.5 104.499 -21.5c39.334 0 74.167 7.16699 104.5 21.5s55.833 33.833 76.5 58.5s36.334 53.5 47.001 86.5c10.6689 33 16.002 68.167 16 105.5c0 37.334 -5.33301 72.501 -16 105.501s-26.334 61.833 -47 86.5c-20.667 24.667 -46.167 44.334 -76.5 59.001
c-30.333 14.6699 -65.166 22.0029 -104.499 22zM409.998 721.997h76l-126 -141h-51zM253.998 721.997h76l-126 -141h-50z" />
    <glyph glyph-name="OE" unicode="&#x152;" horiz-adv-x="1074" 
d="M637 398l-0.000976562 258.001h406v58h-474v-59c-23.334 26.001 -52.001 44.834 -86 56.499c-34 11.6699 -70 17.5029 -108 17.5c-52.667 0 -100 -10 -142 -30s-77.5 -47 -106.5 -81s-51.167 -73.5 -66.5 -118.5s-23 -92.5 -23 -142.5s7.66699 -97.5 23 -142.5
s37.5 -84.5 66.5 -118.5s64.5 -60.833 106.5 -80.5s89.333 -29.5 142 -29.5c35.334 0 70.501 7 105.501 21s64.5 35 88.5 63v-70h477v58h-409v282h368v58h-368zM568.999 509.001v-331.999c-0.666992 -10 -2.16699 -19.667 -4.5 -29s-6.83301 -18 -13.5 -26
c-23.335 -30 -49.335 -50.667 -78 -62c-28.667 -11.333 -61.334 -17 -98 -17c-43.333 0 -81.833 8.5 -115.5 25.5s-62 39.833 -85 68.5s-40.333 62 -52 100s-17.5 78 -17.5 120s5.83301 82 17.5 120c11.667 38.001 29 71.334 52 100c23 28.667 51.333 51.5 85 68.499
c33.667 17 72.167 25.5 115.5 25.5c17.334 -0.00976562 35.667 -2.17676 55 -6.5c19.334 -4.33594 38.001 -10.5029 56.001 -18.5c18 -8 34 -18 48 -30c14 -12.001 24 -25.668 30 -41c2.00879 -8 3.3418 -17 4 -27c0.683594 -10 1.0166 -23 0.999023 -39z" />
    <glyph glyph-name="oe" unicode="&#x153;" horiz-adv-x="889" 
d="M800 294h-321c0 24.667 3.33301 48 10 70s16.834 41.5 30.501 58.5c13.668 17 30.501 30.5 50.499 40.5c20.001 10 43.334 15 70 15c26 0 49 -5 69 -15s36.667 -23.5 50 -40.5s23.5 -36.667 30.5 -59s10.5 -45.5 10.5 -69.5zM862 166h-62.998
c-11.335 -40 -29.668 -71.333 -55 -94c-25.334 -22.667 -60.001 -34 -104 -34c-28.001 0 -52.168 5.83301 -72.501 17.5c-20.335 11.667 -37.002 27 -50 46c-13 19 -22.667 40.667 -29 65s-9.5 49.166 -9.5 74.499h384c-0.00195312 96 -17.6689 168.333 -53.001 217
c-35.333 48.667 -91.333 73 -168 73c-46.001 -0.000976562 -85.668 -11.668 -119 -35c-33.333 -23.333 -57 -54 -71 -92h-2c-13.333 44 -36.333 76.167 -69 96.5s-71 30.5 -115 30.5c-38.667 0 -72.5 -7.5 -101.5 -22.5s-53 -35.167 -72 -60.5s-33.167 -54.333 -42.5 -87
s-14 -67 -14 -103s4.16699 -70.5 12.5 -103.5s21.666 -62 39.999 -87s41.833 -44.833 70.5 -59.5s63.334 -22 104.001 -22c44.667 0 83.5 10.667 116.5 32s55.833 54 68.5 98h2c11.334 -42.667 34.167 -75 68.5 -97s72.833 -33 115.5 -33c60 0 109.5 15.333 148.5 46
s65.5 75.334 79.5 134.001zM265.002 478c31.333 -0.000976562 56.666 -6.33398 75.999 -19c19.334 -12.667 34.667 -29.334 45.999 -50c11.335 -20.667 19.002 -43.834 23.001 -69.5c4 -25.667 6 -51.5 6 -77.5s-2 -52.333 -6 -79s-11.5 -50.834 -22.5 -72.501
s-26.333 -39.167 -45.999 -52.5c-19.667 -13.333 -45.5 -20 -77.5 -20c-30 0 -55.333 6 -76 18s-37.667 27.833 -51 47.5s-23 41.834 -29 66.501s-9 50 -9 76c0 27.334 2.5 54.667 7.5 82s13.833 52.166 26.5 74.499c12.667 22.334 29.667 40.501 51 54.501s48.333 21 81 21
z" />
    <glyph glyph-name="Racute" unicode="&#x154;" horiz-adv-x="667" 
d="M140 375v281h254c52 -0.000976562 90.667 -12.668 116 -38c25.333 -25.334 38 -60.001 38 -104c-0.00585938 -22 -4.17285 -41.5 -12.5 -58.5c-8.33398 -17 -19.501 -31.5 -33.5 -43.5c-14.001 -12 -30.334 -21.167 -49 -27.5c-18.667 -6.33301 -38.334 -9.5 -59 -9.5
h-254zM72 714l-0.000976562 -714.004h68v317h258c32 1.33301 57.167 -4 75.5 -15.999c18.333 -12 32.333 -27.833 42 -47.499c9.66895 -19.667 16.002 -42 19 -67c3 -25 5.16699 -50.167 6.5 -75.5c0.683594 -7.33301 1.35059 -16 2.00098 -26
c0.683594 -10 1.5166 -20.167 2.5 -30.5c1 -10.333 2.66699 -20.333 5 -30s5.5 -17.834 9.5 -24.501h75c-7.33789 8.66699 -13.1709 20.834 -17.499 36.501c-4.33789 15.667 -7.50488 32.334 -9.5 50.001c-2 17.667 -3.33301 35.167 -4 52.5s-1.33398 32 -2.00098 44
c-1.33789 21.333 -4.1709 41.166 -8.5 59.499c-4.33301 18.334 -11.333 34.501 -21 48.501s-22.167 25.5 -37.5 34.5c-15.334 9.00098 -34.667 15.168 -58 18.501v2c46 9.33398 80.667 30.667 104 64c23.333 33.334 35 72.667 35 118c0 32.001 -5.83301 59.834 -17.5 83.5
c-11.667 23.6689 -27.334 43.002 -47.001 58c-19.667 15 -42.667 26.167 -69 33.5s-54.166 11 -83.499 11h-327zM260.999 763.996l105 141h78l-132 -141h-51z" />
    <glyph glyph-name="racute" unicode="&#x155;" horiz-adv-x="315" 
d="M60 516l0.000976562 -516h63v275c0 27.333 4.66699 52.5 14 75.5s22.5 42.833 39.5 59.5s37.167 29.5 60.5 38.5s49.333 12.833 78 11.5v63c-46.667 2 -86.834 -8.33301 -120.501 -31s-58.5 -55 -74.5 -97h-2v121h-58zM95.001 580l105 141h78l-132 -141h-51z" />
    <glyph glyph-name="Rcommaaccent" unicode="&#x156;" horiz-adv-x="667" 
d="M394 375c20.667 0.000976562 40.333 3.16797 59 9.5c18.667 6.33398 35 15.501 49 27.5c14 12 25.167 26.5 33.5 43.5s12.5 36.5 12.5 58.5c-0.000976562 44 -12.668 78.667 -38 104c-25.333 25.333 -64 38 -116 38h-254v-281h254zM398.999 714
c29.334 -0.0078125 57.1729 -3.67578 83.5059 -11.001c26.334 -7.33496 49.334 -18.502 69 -33.501c19.667 -15 35.334 -34.333 47 -58c11.6689 -23.667 17.502 -51.5 17.5 -83.5c-0.000976562 -45.333 -11.668 -84.666 -35 -117.999
c-23.334 -33.333 -58.001 -54.666 -104 -63.999v-2c23.333 -3.33301 42.666 -9.5 57.999 -18.5s27.833 -20.5 37.5 -34.5s16.667 -30.167 21 -48.5s7.16602 -38.166 8.49902 -59.499c0.675781 -12 1.34277 -26.667 2 -44c0.675781 -17.333 2.00879 -34.833 3.99902 -52.5
c2 -17.667 5.16699 -34.334 9.5 -50.001s10.166 -27.834 17.499 -36.501h-75c-4.00391 6.66699 -7.1709 14.834 -9.5 24.501c-2.3418 9.66699 -4.00879 19.667 -5 30c-1 10.333 -1.83301 20.5 -2.5 30.5s-1.33398 18.667 -2.00098 26
c-1.3418 25.333 -3.50879 50.5 -6.50098 75.5c-3 25 -9.33301 47.333 -19 67s-23.667 35.5 -42 47.5s-43.5 17.333 -75.5 16h-258v-317h-68v714h327zM363.005 -163.001c-0.00292969 -14.667 -1.83594 -29.167 -5.5 -43.5c-3.66699 -14.333 -9.16699 -27.666 -16.5 -39.999
s-16.5 -23.166 -27.5 -32.499s-24.167 -16 -39.5 -20v43c8.66699 2.66602 16 7.49902 22 14.499s11 15.167 15 24.5s6.83301 18.833 8.5 28.5c1.66699 9.66602 2.16699 18.499 1.5 26.499h-42v106h84v-107z" />
    <glyph glyph-name="rcommaaccent" unicode="&#x157;" horiz-adv-x="315" 
d="M118 516l-0.000976562 -121.003h2c16 42 40.833 74.333 74.5 97c33.667 22.6689 73.834 33.002 120.501 31v-63c-28.667 1.33203 -54.667 -2.50098 -78 -11.499c-23.333 -9 -43.5 -21.833 -60.5 -38.499c-17 -16.667 -30.167 -36.5 -39.5 -59.499
c-9.33301 -23 -14 -48.167 -14 -75.5v-275h-63v516h58zM132.999 -163.003c0 -14.667 -1.83301 -29.167 -5.5 -43.5s-9.16699 -27.666 -16.5 -39.999s-16.5 -23.166 -27.5 -32.499s-24.167 -16 -39.5 -20v43c8.66699 2.66602 16 7.49902 22 14.499s11 15.167 15 24.5
s6.83301 18.833 8.5 28.5c1.66699 9.66602 2.16699 18.499 1.5 26.499h-42v106h84v-107z" />
    <glyph glyph-name="Rcaron" unicode="&#x158;" horiz-adv-x="667" 
d="M140 375v281h254c52 -0.000976562 90.667 -12.668 116 -38c25.333 -25.334 38 -60.001 38 -104c-0.00585938 -22 -4.17285 -41.5 -12.5 -58.5c-8.33398 -17 -19.501 -31.5 -33.5 -43.5c-14.001 -12 -30.334 -21.167 -49 -27.5c-18.667 -6.33301 -38.334 -9.5 -59 -9.5
h-254zM72 714l-0.000976562 -714.004h68v317h258c32 1.33301 57.167 -4 75.5 -15.999c18.333 -12 32.333 -27.833 42 -47.499c9.66895 -19.667 16.002 -42 19 -67c3 -25 5.16699 -50.167 6.5 -75.5c0.683594 -7.33301 1.35059 -16 2.00098 -26
c0.683594 -10 1.5166 -20.167 2.5 -30.5c1 -10.333 2.66699 -20.333 5 -30s5.5 -17.834 9.5 -24.501h75c-7.33789 8.66699 -13.1709 20.834 -17.499 36.501c-4.33789 15.667 -7.50488 32.334 -9.5 50.001c-2 17.667 -3.33301 35.167 -4 52.5s-1.33398 32 -2.00098 44
c-1.33789 21.333 -4.1709 41.166 -8.5 59.499c-4.33301 18.334 -11.333 34.501 -21 48.501s-22.167 25.5 -37.5 34.5c-15.334 9.00098 -34.667 15.168 -58 18.501v2c46 9.33398 80.667 30.667 104 64c23.333 33.334 35 72.667 35 118c0 32.001 -5.83301 59.834 -17.5 83.5
c-11.667 23.6689 -27.334 43.002 -47.001 58c-19.667 15 -42.667 26.167 -69 33.5s-54.166 11 -83.499 11h-327zM191.999 913.996l113 -141h69l114 141h-58l-88 -102l-86 102h-64z" />
    <glyph glyph-name="rcaron" unicode="&#x159;" horiz-adv-x="315" 
d="M60 516l0.000976562 -516h63v275c0 27.333 4.66699 52.5 14 75.5s22.5 42.833 39.5 59.5s37.167 29.5 60.5 38.5s49.333 12.833 78 11.5v63c-46.667 2 -86.834 -8.33301 -120.501 -31s-58.5 -55 -74.5 -97h-2v121h-58zM48.001 740l113 -141h69l114 141h-58l-88 -102
l-86 102h-64z" />
    </font>
</defs>
</svg>
